<?xml version="1.0" standalone="no"?>
<!DOCTYPE svg PUBLIC "-//W3C//DTD SVG 1.1//EN" "http://www.w3.org/Graphics/SVG/1.1/DTD/svg11.dtd" >
<svg>
<metadata>
Created by FontForge 20090914 at Wed Jul 25 06:27:21 2012
 By www-data
Copyright (c) 1985, 1987, 1997, 1998 Adobe Systems Incorporated.  All Rights Reserved.ITC Lubalin Graph is a registered trademark of International Typeface Corporation.
</metadata>
<defs>
<font id="LubalinGraphLT-Book" horiz-adv-x="580" >
  <font-face 
    font-family="LubalinGraph LT"
    font-weight="400"
    font-stretch="normal"
    units-per-em="1000"
    panose-1="2 0 5 3 3 0 0 2 0 4"
    ascent="800"
    descent="-200"
    x-height="525"
    cap-height="714"
    bbox="-154 -251.999 1160 982.004"
    underline-thickness="50"
    underline-position="-75"
    unicode-range="U+0020-U+FB02"
  />
<missing-glyph horiz-adv-x="300" 
 />
    <glyph glyph-name=".notdef" horiz-adv-x="300" 
 />
    <glyph glyph-name="space" unicode=" " horiz-adv-x="300" 
 />
    <glyph glyph-name="space" unicode="&#xa0;" horiz-adv-x="300" 
 />
    <glyph glyph-name="exclam" unicode="!" horiz-adv-x="140" 
d="M105 183h-69v531h69v-531zM105 0h-69v109h69v-109z" />
    <glyph glyph-name="quotedbl" unicode="&#x22;" horiz-adv-x="280" 
d="M47 487l-11 227h70l-12 -227h-47zM179 487l-11 227h70l-11 -227h-48z" />
    <glyph glyph-name="numbersign" unicode="#" 
d="M243 423l-15 -117h121l15 117h-121zM352 0h-47l36 260h-122l-36 -260h-47l35 260h-142v46h151l15 117h-139v47h147l34 244h47l-33 -244h121l35 244h46l-33 -244h131v-47h-140l-14 -117h129v-46h-138z" />
    <glyph glyph-name="dollar" unicode="$" 
d="M312 48c36.667 4.66699 67.167 19.833 91.5 45.5s36.5 57.5 36.5 95.5c0 39.333 -12.333 70.833 -37 94.5s-55 39.5 -91 47.5v-283zM251 662.999c-15.333 -0.666992 -29.833 -4.50098 -43.5 -11.501s-25.5 -16.167 -35.5 -27.5s-18 -24.166 -24 -38.499
s-9 -29.5 -9 -45.5c0 -36 10.667 -64.333 32 -85s48 -34.667 80 -42v250zM414 543.998c0 14 -2.83789 27.499 -8.50488 40.499s-13.167 24.833 -22.5 35.5s-20.166 19.667 -32.499 27s-25.166 12.666 -38.499 15.999v-263c28 -4 54.333 -11.5 79 -22.5s46 -25.333 64 -43
s32.167 -38.667 42.5 -63s15.5 -51.5 15.5 -81.5c0 -28.667 -5.33301 -55 -16 -79s-25.167 -45 -43.5 -63s-39.666 -32.667 -63.999 -44s-50.166 -18 -77.499 -20v-93h-61v93c-26.667 8.66699 -49.167 18.5 -67.5 29.5s-35.166 28.167 -50.499 51.5v-65h-57v192h57
c1.33301 -34.667 13.333 -64.5 36 -89.5s50 -43.167 82 -54.5v296l-32 10c-22 6.66699 -41.667 14.334 -59 23.001s-34 21.667 -50 39c-14.667 16.667 -25.667 35.667 -33 57s-11 43 -11 65c0 26 5 50.167 15 72.5s23.333 41.833 40 58.5s36.167 30 58.5 40
s46.166 16 71.499 18v98h61v-98c22.667 -5.33301 42.834 -13.666 60.501 -24.999s31.5 -27 41.5 -47v58h57v-169h-57z" />
    <glyph glyph-name="percent" unicode="%" horiz-adv-x="800" 
d="M217 0l317 714h57l-316 -714h-58zM202 456c14.667 0 28.6699 2.83105 42.0029 8.49805s24.666 13.5 33.999 23.5s16.833 21.5 22.5 34.5s8.5 27.167 8.5 42.5c0 14 -2.83301 27.5 -8.5 40.5s-13.334 24.333 -23.001 34s-21 17.334 -34 23.001s-26.5 8.5 -40.5 8.5
c-14.667 0 -28.5 -2.66699 -41.5 -8s-24.5 -12.666 -34.5 -21.999s-18 -20.333 -24 -33s-9 -26.334 -9 -41.001c0 -15.333 2.66699 -29.666 8 -42.999s12.833 -25 22.5 -35s21.167 -18 34.5 -24s27.666 -9 42.999 -9zM201.003 397.998c-23.333 0 -45.167 4.5 -65.5 13.5
s-37.833 21.167 -52.5 36.5s-26.167 33.166 -34.5 53.499s-12.5 42.166 -12.5 65.499c0 22.667 4.5 43.834 13.5 63.501s21 36.834 36 51.501s32.667 26.167 53 34.5s41.5 12.5 63.5 12.5c22.667 0 43.834 -4.33301 63.501 -13s37 -20.5 52 -35.5s26.833 -32.5 35.5 -52.5
s13 -41.333 13 -64c0 -23.333 -4.33301 -45 -13 -65s-20.334 -37.5 -35.001 -52.5s-32.167 -26.833 -52.5 -35.5s-41.833 -13 -64.5 -13zM605.002 45.998c14.667 0 28.6709 2.82812 42.0039 8.49512s24.666 13.334 33.999 23.001s16.833 21 22.5 34s8.5 27.167 8.5 42.5
c0 14.667 -2.83301 28.334 -8.5 41.001s-13.334 23.834 -23.001 33.501s-20.834 17.334 -33.501 23.001s-26.334 8.5 -41.001 8.5s-28.5 -2.66699 -41.5 -8s-24.5 -12.666 -34.5 -21.999s-17.833 -20.333 -23.5 -33s-8.5 -26.334 -8.5 -41.001
c0 -15.333 2.66699 -29.666 8 -42.999s12.833 -25 22.5 -35s21 -17.833 34 -23.5s27.167 -8.5 42.5 -8.5zM605.006 -13.0068c-23.333 0 -45.166 4.5 -65.499 13.5s-38 21.167 -53 36.5s-26.667 33.166 -35 53.499s-12.5 42.166 -12.5 65.499
c0 22.667 4.5 43.834 13.5 63.501s21 36.834 36 51.501s32.667 26.167 53 34.5s41.5 12.5 63.5 12.5c22.667 0 44 -4.33301 64 -13s37.5 -20.5 52.5 -35.5s26.833 -32.5 35.5 -52.5s13 -41.333 13 -64s-4.33301 -44.167 -13 -64.5s-20.334 -38 -35.001 -53
s-32.167 -26.833 -52.5 -35.5s-41.833 -13 -64.5 -13z" />
    <glyph glyph-name="ampersand" unicode="&#x26;" horiz-adv-x="720" 
d="M248 361c-17.333 -8 -34.501 -16.998 -51.501 -26.998s-32.167 -21.5 -45.5 -34.5s-24 -28 -32 -45s-12 -36.5 -12 -58.5c0 -20 3.83301 -39 11.5 -57s18 -33.667 31 -47s28.333 -24 46 -32s36.834 -12 57.501 -12c24 0 44.667 4 62 12s32.5 18.667 45.5 32
s24.333 28.666 34 45.999s19.167 35.666 28.5 54.999zM260.999 440.002c12.667 6 26 13.001 40 21.001s26.833 17.167 38.5 27.5s21.167 22 28.5 35s11 27.833 11 44.5c0 14 -2.66699 27.5 -8 40.5s-12.5 24.167 -21.5 33.5s-19.833 16.833 -32.5 22.5
s-26.334 8.5 -41.001 8.5c-14 0 -27.167 -2.5 -39.5 -7.5s-23.333 -12 -33 -21s-17.167 -19.667 -22.5 -32s-8 -25.833 -8 -40.5c0 -13.333 1.83301 -25.333 5.5 -36s8.83398 -20.334 15.501 -29.001s14 -17 22 -25l26 -25zM632.999 -10.9971l-162.998 158.998
c-12 -24 -24.833 -46 -38.5 -66s-29.334 -37 -47.001 -51s-37.667 -25 -60 -33s-47.833 -12 -76.5 -12s-55.834 5.33301 -81.501 16s-48.167 25.334 -67.5 44.001s-34.666 40.667 -45.999 66s-17 52.666 -17 81.999c0 26 4.66699 49.667 14 71s21.833 40.666 37.5 57.999
s33.667 32.833 54 46.5s41.166 25.834 62.499 36.501l-14 13c-12 10.667 -23 21.334 -33 32.001s-18.667 22 -26 34s-13.166 24.833 -17.499 38.5s-6.5 29.167 -6.5 46.5c0 23.333 4.5 45 13.5 65s21 37.167 36 51.5s32.667 25.666 53 33.999s42.166 12.5 65.499 12.5
c22 0 43 -4.16699 63 -12.5s37.5 -19.666 52.5 -33.999s27 -31.166 36 -50.499s13.5 -40.333 13.5 -63c0 -22 -3.83301 -41.667 -11.5 -59s-18 -33 -31 -47s-27.667 -26.5 -44 -37.5s-33.5 -20.833 -51.5 -29.5l159 -152l94 203h129v-62h-87l-89 -188l171 -166z" />
    <glyph glyph-name="quotesingle" unicode="'" horiz-adv-x="140" 
d="M47 487l-11 227h70l-12 -227h-47z" />
    <glyph glyph-name="parenleft" unicode="(" horiz-adv-x="340" 
d="M300 -133c-40.667 18.667 -77.165 43 -109.498 73s-60 63.667 -83 101s-40.667 77.333 -53 120s-18.5 86.334 -18.5 131.001c0 48.667 7.16699 95.667 21.5 141s35.5 88 63.5 128c10.667 15.333 22.667 30.666 36 45.999s27.666 29.833 42.999 43.5s31.333 26 48 37
s34 19.833 52 26.5v-79c-59.333 -37.333 -105.833 -86.166 -139.5 -146.499s-50.5 -125.5 -50.5 -195.5c0 -34.667 4.33301 -68.834 13 -102.501s21.167 -65.5 37.5 -95.5s36.166 -57.5 59.499 -82.5s50 -46.5 80 -64.5v-81z" />
    <glyph glyph-name="parenright" unicode=")" horiz-adv-x="340" 
d="M36 714c36 -14 69.501 -35.167 100.501 -63.5s57.167 -58.166 78.5 -89.499c28 -40 49.167 -82.667 63.5 -128s21.5 -92.333 21.5 -141c0 -44.667 -6.16699 -88.334 -18.5 -131.001s-30 -82.667 -53 -120s-50.667 -71 -83 -101s-68.833 -54.333 -109.5 -73v81
c30 18 56.667 39.5 80 64.5s43.166 52.5 59.499 82.5s28.833 61.833 37.5 95.5s13 67.834 13 102.501c0 70 -16.833 135.167 -50.5 195.5s-80.167 109.166 -139.5 146.499v79z" />
    <glyph glyph-name="asterisk" unicode="*" horiz-adv-x="340" 
d="M310 563h-102l52 -83l-36 -22l-51 87l-48 -90l-36 20l50 88l-103 -2v42h101l-55 86l36 23l54 -91l52 93l37 -21l-53 -90l102 2v-42z" />
    <glyph glyph-name="plus" unicode="+" horiz-adv-x="660" 
d="M294 388v223h62v-223h223v-61h-223v-223h-62v223h-223v61h223z" />
    <glyph glyph-name="comma" unicode="," horiz-adv-x="300" 
d="M81 -97l74 184h63l-74 -184h-63z" />
    <glyph glyph-name="hyphen" unicode="-" horiz-adv-x="300" 
d="M26 228v66h248v-66h-248z" />
    <glyph glyph-name="hyphen" unicode="&#xad;" horiz-adv-x="300" 
d="M26 228v66h248v-66h-248z" />
    <glyph glyph-name="period" unicode="." horiz-adv-x="300" 
d="M185 0h-69v109h69v-109z" />
    <glyph glyph-name="slash" unicode="/" 
d="M36 -195l445 909h54l-446 -909h-53z" />
    <glyph glyph-name="zero" unicode="0" 
d="M109 248c0 -24 2.16699 -46.333 6.5 -67s14.166 -40.667 29.499 -60c16.667 -22.667 37.5 -40 62.5 -52s51.5 -18 79.5 -18c28.667 0 56 6.33301 82 19s47.333 30.667 64 54c13.333 19.333 22 39 26 59s6 41.667 6 65v222c0 24 -2 46.333 -6 67s-13.667 40.667 -29 60
c-16.667 22.667 -37.667 40 -63 52s-52 18 -80 18s-55 -6.5 -81 -19.5s-47.333 -31.167 -64 -54.5c-13.333 -19.333 -22.166 -38.833 -26.499 -58.5s-6.5 -41.167 -6.5 -64.5v-222zM536 248c0 -35.333 -4.5 -67.5 -13.5 -96.5s-25.5 -56.833 -49.5 -83.5
c-24 -25.333 -52 -45.333 -84 -60s-66 -22 -102 -22c-33.333 0 -65.166 6.33301 -95.499 19s-57.166 30.667 -80.499 54c-28 27.333 -47.167 56.166 -57.5 86.499s-15.5 64.5 -15.5 102.5v223c0 35.333 4.5 67.5 13.5 96.5s25.833 56.5 50.5 82.5c24 26 52 46.333 84 61
s65.667 22 101 22c33.333 0 65.166 -6.33301 95.499 -19s57.166 -30.667 80.499 -54c28 -27.333 47.167 -56.166 57.5 -86.499s15.5 -64.5 15.5 -102.5v-223z" />
    <glyph glyph-name="one" unicode="1" 
d="M344 62h94v-62h-258v62h94v595h-138v57h208v-652z" />
    <glyph glyph-name="two" unicode="2" 
d="M514 173l-0.000976562 -173.002h-455v62l302 294l31.5 32.5c10.333 11 19.5 22.667 27.5 35s14.5 25.333 19.5 39s7.5 28.834 7.5 45.501c0 22 -4 42.5 -12 61.5s-19.167 35.5 -33.5 49.5s-31 25 -50 33s-39.5 12 -61.5 12c-23.333 0 -45 -4.5 -65 -13.5
s-37 -21.167 -51 -36.5s-24.667 -33.333 -32 -54s-10.333 -42.667 -9 -66h-69c-1.33301 33.333 3.66699 64.5 15 93.5s27.5 54.333 48.5 76s45.833 38.667 74.5 51s59.667 18.5 93 18.5c28 0 56 -5.5 84 -16.5s52 -26.167 72 -45.5c22 -22 38.5 -47.167 49.5 -75.5
s16.5 -58.166 16.5 -89.499c0 -22.667 -3.16699 -43.167 -9.5 -61.5s-14.666 -35.5 -24.999 -51.5s-22.5 -31.167 -36.5 -45.5l-43 -43.5l-252 -242h299v111h64z" />
    <glyph glyph-name="three" unicode="3" 
d="M104 560c0.666992 25.333 6.17188 48.501 16.5049 69.501s24.166 39.167 41.499 54.5s37.166 27.333 59.499 36s45.5 13 69.5 13c24.667 0 48.167 -4.33301 70.5 -13s42 -20.667 59 -36s30.5 -33.666 40.5 -54.999s15 -45 15 -71c0 -33.333 -8 -63.833 -24 -91.5
s-40 -47.834 -72 -60.501c20.667 -6.66699 39.667 -16.5 57 -29.5s32.166 -28.167 44.499 -45.5s21.833 -36.333 28.5 -57s10 -42 10 -64c0 -31.333 -6.16699 -60.666 -18.5 -87.999s-29 -51 -50 -71s-45.333 -35.833 -73 -47.5s-56.834 -17.5 -87.501 -17.5
c-32 0 -62 5.33301 -90 16s-52.667 25.5 -74 44.5s-38.5 41.833 -51.5 68.5s-20.5 56.334 -22.5 89.001h73c1.33301 -20.667 6.33301 -40.334 15 -59.001s20 -35 34 -49s30.333 -25.167 49 -33.5s38.667 -12.5 60 -12.5c23.333 0 44.833 4.33301 64.5 13
s36.834 20.5 51.501 35.5s26 32.667 34 53s12 41.833 12 64.5c0 23.333 -4.66699 44.666 -14 63.999s-22 36 -38 50s-34.333 25 -55 33s-42 12 -64 12h-36v56h34c17.333 0 33.666 1.66699 48.999 5s30 10.666 44 21.999s24.667 25 32 41s11 33 11 51
c0 36 -11.333 65.5 -34 88.5s-51.667 34.5 -87 34.5c-15.333 0 -30 -3 -44 -9s-26.167 -14 -36.5 -24s-18.833 -21.833 -25.5 -35.5s-10.334 -28.5 -11.001 -44.5h-67z" />
    <glyph glyph-name="four" unicode="4" 
d="M375 629l-272 -396h272v396zM549 175h-104v-113h94v-62h-257v62h93v113h-351v58l335 481h86v-481h104v-58z" />
    <glyph glyph-name="five" unicode="5" 
d="M107 194c4 -21.333 11.4971 -40.667 22.4971 -58s24.333 -32.333 40 -45s33.167 -22.5 52.5 -29.5s39.666 -10.5 60.999 -10.5c24.667 0 48.167 4.5 70.5 13.5s42 21.5 59 37.5s30.5 34.833 40.5 56.5s15 45.167 15 70.5c0 26 -4.66699 50 -14 72
s-22.166 41.333 -38.499 58s-35.666 29.667 -57.999 39s-46.5 14 -72.5 14c-30 0 -58 -6.5 -84 -19.5s-47.667 -31.5 -65 -55.5l-63 15l66 362h353v-62h-296l-45 -230c42.667 35.333 92.334 53 149.001 53c33.333 0 64.5 -6.33301 93.5 -19s54.333 -30 76 -52
s38.834 -47.667 51.501 -77s19 -60.333 19 -93c0 -36 -6.83301 -69.167 -20.5 -99.5s-32 -56.5 -55 -78.5s-50.167 -39.167 -81.5 -51.5s-64.333 -18.5 -99 -18.5c-32 0 -62 5 -90 15s-53 24 -75 42s-40.5 39.833 -55.5 65.5s-25.167 54.167 -30.5 85.5h74z" />
    <glyph glyph-name="six" unicode="6" 
d="M287 55c24.667 0 48.165 4.66992 70.498 14.0029s41.833 22.166 58.5 38.499s29.834 35.5 39.501 57.5s14.5 45.667 14.5 71s-4.66699 49.166 -14 71.499s-22.333 42 -39 59s-36 30.5 -58 40.5s-46 15 -72 15c-25.333 0 -49.166 -4.83301 -71.499 -14.5
s-41.666 -22.834 -57.999 -39.501s-29.333 -36.167 -39 -58.5s-14.5 -45.833 -14.5 -70.5c0 -25.333 4.66699 -49.166 14 -71.499s22.333 -41.833 39 -58.5s36.167 -29.834 58.5 -39.501s46.166 -14.5 71.499 -14.5zM381.998 714.003l-182.999 -266.999
c17.333 11.333 33.666 19.833 48.999 25.5s33.666 8.5 54.999 8.5c32.667 0 63.334 -6.33301 92.001 -19s53.667 -30 75 -52s38 -47.5 50 -76.5s18 -59.5 18 -91.5c0 -35.333 -6.33301 -68.5 -19 -99.5s-30 -58.167 -52 -81.5s-48.167 -41.666 -78.5 -54.999
s-63.5 -20 -99.5 -20s-69.5 6.83301 -100.5 20.5s-57.833 32.167 -80.5 55.5s-40.5 50.666 -53.5 81.999s-19.5 64.666 -19.5 99.999c0 31.333 5.33301 59.833 16 85.5s24.667 51.167 42 76.5l210 308h79z" />
    <glyph glyph-name="seven" unicode="7" 
d="M504 714v-67l-293 -647h-78l299 652h-293v-129h-69v191h434z" />
    <glyph glyph-name="eight" unicode="8" 
d="M286 49c22 0 42.332 4.16797 60.999 12.501s35 19.666 49 33.999s25 31 33 50s12 39.167 12 60.5s-4.16699 41.5 -12.5 60.5s-19.666 35.5 -33.999 49.5s-31 25.167 -50 33.5s-39.167 12.5 -60.5 12.5s-41.333 -4.16699 -60 -12.5s-35 -19.5 -49 -33.5
s-25.167 -30.5 -33.5 -49.5s-12.5 -39.167 -12.5 -60.5c0 -22 4.16699 -42.5 12.5 -61.5s19.5 -35.667 33.5 -50s30.5 -25.5 49.5 -33.5s39.5 -12 61.5 -12zM283.999 424.001c16.667 0 32.5 3.33203 47.5 9.99902s28.167 15.5 39.5 26.5s20.166 24 26.499 39
s9.5 30.833 9.5 47.5s-3.16699 32.667 -9.5 48s-15 28.5 -26 39.5s-24 19.833 -39 26.5s-30.833 10 -47.5 10c-17.333 0 -33.333 -3.16699 -48 -9.5s-27.667 -15.166 -39 -26.499s-20.166 -24.5 -26.499 -39.5s-9.5 -30.833 -9.5 -47.5c0 -17.333 3.16699 -33.5 9.5 -48.5
s15 -28 26 -39s23.833 -19.833 38.5 -26.5s30.667 -10 48 -10zM197.999 396c-31.333 13.333 -56 33.332 -74 59.999s-27 57.667 -27 93c0 26.667 5.16699 51.334 15.5 74.001s24.333 42.167 42 58.5s38.167 29 61.5 38s48.333 13.5 75 13.5c24 0 47 -4.66699 69 -14
s41.333 -22 58 -38s29.834 -34.667 39.501 -56s14.5 -44.333 14.5 -69c0 -35.333 -8.33301 -66.333 -25 -93s-40.667 -47.667 -72 -63c20 -6.66699 38.667 -16.334 56 -29.001s32.166 -27.5 44.499 -44.5s22 -35.667 29 -56s10.5 -41.166 10.5 -62.499
c0 -31.333 -6 -60.5 -18 -87.5s-28.5 -50.5 -49.5 -70.5s-45.333 -35.667 -73 -47s-56.834 -17 -87.501 -17c-31.333 0 -60.666 5.33301 -87.999 16s-51.5 25.5 -72.5 44.5s-37.5 41.833 -49.5 68.5s-18 55.667 -18 87c0 22 3.33301 43.167 10 63.5s16.167 39 28.5 56
s27 31.833 44 44.5s35.833 22.667 56.5 30z" />
    <glyph glyph-name="nine" unicode="9" 
d="M289 293c26 0 50.165 4.99609 72.498 14.9961s41.5 23.5 57.5 40.5s28.667 37 38 60s14 47.167 14 72.5c0 24.667 -4.83301 48 -14.5 70s-22.667 41.333 -39 58s-35.5 29.834 -57.5 39.501s-45.333 14.5 -70 14.5c-25.333 0 -49.166 -4.66699 -71.499 -14
s-42 -22.166 -59 -38.499s-30.5 -35.666 -40.5 -57.999s-15 -46.166 -15 -71.499c0 -26 4.66699 -50.5 14 -73.5s22.333 -43 39 -60s36.334 -30.333 59.001 -40s47 -14.5 73 -14.5zM189.998 -0.00390625l183.997 264.001c-16 -10 -32 -18 -48 -24s-33.667 -9 -53 -9
c-33.333 0 -64.666 6.66699 -93.999 20s-54.666 31.166 -75.999 53.499s-38.166 48.333 -50.499 78s-18.5 60.834 -18.5 93.501c0 34.667 6.66699 67.667 20 99s31.666 58.666 54.999 81.999s50.333 41.833 81 55.5s63.667 20.5 99 20.5s68.333 -6.83301 99 -20.5
s57.334 -32.334 80.001 -56.001s40.5 -51 53.5 -82s19.5 -63.833 19.5 -98.5c0 -34 -5 -63.667 -15 -89s-24.333 -51.666 -43 -78.999l-206 -308h-87z" />
    <glyph glyph-name="colon" unicode=":" horiz-adv-x="300" 
d="M185 366h-69v109h69v-109zM185 0h-69v109h69v-109z" />
    <glyph glyph-name="semicolon" unicode=";" horiz-adv-x="300" 
d="M182 366h-64v109h64v-109zM46 -97l74 184h63l-74 -184h-63z" />
    <glyph glyph-name="semicolon" unicode="&#x37e;" horiz-adv-x="300" 
d="M182 366h-64v109h64v-109zM46 -97l74 184h63l-74 -184h-63z" />
    <glyph glyph-name="less" unicode="&#x3c;" horiz-adv-x="660" 
d="M595 83l-540 246v58l540 248v-63l-470 -215l470 -211v-63z" />
    <glyph glyph-name="equal" unicode="=" horiz-adv-x="660" 
d="M579 314v-61h-508v61h508zM579 463v-61h-508v61h508z" />
    <glyph glyph-name="greater" unicode="&#x3e;" horiz-adv-x="660" 
d="M525 357l-470 215v63l540 -248v-58l-540 -246v63z" />
    <glyph glyph-name="question" unicode="?" horiz-adv-x="520" 
d="M229 180c0 45.333 9 83.167 27 113.5s43.333 60.166 76 89.499l30.5 29c9.66699 9.33301 18 19 25 29s12.5 21.167 16.5 33.5s6 26.5 6 42.5c0 20.667 -4 40.334 -12 59.001s-19 34.834 -33 48.501s-30.333 24.5 -49 32.5s-38.334 12 -59.001 12
c-21.333 0 -41.166 -4.16699 -59.499 -12.5s-34.333 -19.666 -48 -33.999s-24.334 -30.833 -32.001 -49.5s-11.5 -38.334 -11.5 -59.001h-70c0 30.667 5.66699 59.5 17 86.5s27 50.833 47 71.5s43.5 37 70.5 49s56.167 18 87.5 18c30.667 0 59.5 -5.66699 86.5 -17
s50.667 -27 71 -47s36.5 -43.333 48.5 -70s18 -55.334 18 -86.001c0 -21.333 -2.33301 -40 -7 -56s-11.334 -30.5 -20.001 -43.5s-19 -25.5 -31 -37.5l-39 -38c-25.333 -24 -45.666 -48.5 -60.999 -73.5s-23.666 -55.167 -24.999 -90.5h-70zM299 0.000976562h-70v109h70
v-109z" />
    <glyph glyph-name="at" unicode="@" horiz-adv-x="900" 
d="M408 199c33.333 0 63.3359 11.3359 90.0029 34.0029c13.333 11.333 23.166 23.166 29.499 35.499s12.5 26.5 18.5 42.5c2.66699 7.33301 5.66699 16.666 9 27.999l10 35.5c3.33301 12.333 6.16602 24.166 8.49902 35.499s3.5 21 3.5 29c0 27.333 -9.5 48.833 -28.5 64.5
s-42.167 23.5 -69.5 23.5c-26.667 0 -51.334 -6.33301 -74.001 -19s-42.167 -29 -58.5 -49s-29 -42.333 -38 -67s-13.5 -49 -13.5 -73c0 -16 2.5 -31.333 7.5 -46s12.333 -27.5 22 -38.5s21.5 -19.667 35.5 -26s30 -9.5 48 -9.5zM781.003 121.003
c-37.333 -46 -82.5078 -80 -135.508 -102s-109.5 -33 -169.5 -33c-49.333 0 -99.5 8.5 -150.5 25.5s-95.167 41.5 -132.5 73.5c-39.333 34 -69.333 75 -90 123s-31 97.667 -31 149c0 52.667 10.833 101.834 32.5 147.501s50.834 85.5 87.501 119.5s79.334 60.667 128.001 80
s99.667 29 153 29c46 0 90 -7.33301 132 -22s78.833 -35.5 110.5 -62.5s57 -59.333 76 -97s28.5 -79.5 28.5 -125.5c0 -32.667 -4 -63.5 -12 -92.5s-22 -56.5 -42 -82.5c-19.333 -24.667 -43.666 -46 -72.999 -64s-60.666 -27 -93.999 -27c-20 0 -35 5.16699 -45 15.5
s-15.667 25.166 -17 44.499c-18.667 -21.333 -39.167 -37.5 -61.5 -48.5s-48.5 -16.5 -78.5 -16.5c-23.333 0 -44.333 4.83301 -63 14.5s-34.5 22.167 -47.5 37.5s-23 33 -30 53s-10.5 40.667 -10.5 62c0 30 6.16699 59.833 18.5 89.5s29 56.167 50 79.5
s45.667 42.166 74 56.499s58.833 21.5 91.5 21.5c27.333 0 52 -6.83301 74 -20.5s37 -33.167 45 -58.5l16 49h47l-75 -256c-2.66699 -8 -5.16699 -16.333 -7.5 -25s-3.5 -17.334 -3.5 -26.001c0 -22.667 12.333 -34 37 -34c10 0 20.333 1.83301 31 5.5
s20.834 8.5 30.501 14.5s18.834 12.667 27.501 20s16 14.666 22 21.999c21.333 23.333 36.166 48.833 44.499 76.5s12.5 56.834 12.5 87.501c0 38.667 -7.16699 73.5 -21.5 104.5s-36.166 59.833 -65.499 86.5c-32 28 -66.667 48.333 -104 61s-77.333 19 -120 19
c-48 0 -92.5 -8 -133.5 -24s-78.833 -39.667 -113.5 -71c-72 -66 -108 -147 -108 -243c0 -50 9.33301 -95.5 28 -136.5s44.334 -76 77.001 -105s71 -51.5 115 -67.5s91 -24 141 -24c26.667 0 53.5 2.83301 80.5 8.5s52.833 13.834 77.5 24.501s47.834 23.834 69.501 39.501
s41.167 33.5 58.5 53.5z" />
    <glyph glyph-name="A" unicode="A" horiz-adv-x="820" 
d="M412 633l-146 -344h289zM554 0v66h93l-71 164h-331l-73 -164h90v-66h-255v66h89l259 582h-95v66h187l280 -648h89v-66h-262z" />
    <glyph glyph-name="B" unicode="B" 
d="M310 66c23.333 0 46.001 1.00293 68.001 3.00293s42.333 9 61 21c18 11.333 30.667 27.666 38 48.999s11 42.333 11 63c0 22.667 -4.83301 44.167 -14.5 64.5s-23.834 37.166 -42.501 50.499c-19.333 13.333 -39.833 21.166 -61.5 23.499s-44.167 3.5 -67.5 3.5h-115
v-278h123zM297.001 406.003c22 0 42.166 1.00195 60.499 3.00195s36.5 10.667 54.5 26c14.667 12 25.334 26 32.001 42s10 33.667 10 53s-3.83301 37.666 -11.5 54.999s-19.5 31.666 -35.5 42.999s-33 17.5 -51 18.5s-36.667 1.5 -56 1.5h-113v-242h110zM318 714.005
c24.667 0 48.667 -2.00195 72 -6.00195s45.333 -13.667 66 -29c46.667 -35.333 70 -82.333 70 -141c0 -34 -9 -64.833 -27 -92.5s-42 -48.834 -72 -63.501c42 -15.333 74.667 -39.666 98 -72.999s35 -72 35 -116c0 -27.333 -5.33301 -53.666 -16 -78.999
s-26 -47.333 -46 -66c-23.333 -21.333 -48.333 -34.666 -75 -39.999s-55.667 -8 -87 -8h-312v66h91v582h-91v66h294z" />
    <glyph glyph-name="C" unicode="C" horiz-adv-x="740" 
d="M642 540c-13.333 20 -29.168 37.5 -47.501 52.5s-38.333 27.667 -60 38s-44.167 18 -67.5 23s-47 7.5 -71 7.5c-42 0 -81.167 -7.66699 -117.5 -23s-68.166 -36.5 -95.499 -63.5s-48.833 -58.5 -64.5 -94.5s-23.5 -75 -23.5 -117c0 -41.333 7.66699 -80.5 23 -117.5
s36.333 -69.333 63 -97s58.167 -49.667 94.5 -66s75.833 -24.5 118.5 -24.5c50 0 96.833 11.167 140.5 33.5s80.167 54.166 109.5 95.499h80c-15.333 -31.333 -34.5 -59.333 -57.5 -84s-48.833 -45.667 -77.5 -63s-59.5 -30.666 -92.5 -39.999s-66.5 -14 -100.5 -14
c-49.333 0 -97 9.66699 -143 29s-86.333 46 -121 80c-36.667 36 -64 77 -82 123s-27 94.333 -27 145c0 51.333 9.83301 99.5 29.5 144.5s47.167 85.833 82.5 122.5c32 32.667 70.5 58 115.5 76s93.167 27 144.5 27c48 0 93.333 -8.5 136 -25.5s79.667 -42.833 111 -77.5v84
h66v-174h-66z" />
    <glyph glyph-name="D" unicode="D" horiz-adv-x="720" 
d="M327 66c43.333 0 82.8311 4.99902 118.498 14.999s68.834 31.333 99.501 64c26 28 46.5 60.667 61.5 98s22.5 75 22.5 113c0 40 -7.5 79.667 -22.5 119s-37.5 73 -67.5 101c-16 14.667 -31.833 26.834 -47.5 36.501s-32 17 -49 22s-34.667 8.5 -53 10.5
s-38.166 3 -59.499 3h-143v-582h140zM114.998 647.999h-91.999v66h318c50.667 0 96.334 -7 137.001 -21s79.667 -39.333 117 -76c35.333 -34.667 61.833 -74.667 79.5 -120s26.5 -92.666 26.5 -141.999c0 -47.333 -8.83301 -92.833 -26.5 -136.5
s-42.834 -82.834 -75.501 -117.501c-36.667 -38.667 -75.834 -65.167 -117.501 -79.5s-88.5 -21.5 -140.5 -21.5h-318v66h92v582z" />
    <glyph glyph-name="E" unicode="E" horiz-adv-x="560" 
d="M527 184v-184h-503v66h91v582h-91v66h503v-184h-72v118h-268v-258h276v-59h-276v-265h268v118h72z" />
    <glyph glyph-name="F" unicode="F" horiz-adv-x="560" 
d="M187 66h92v-66h-255v66h91v582h-91v66h504v-186h-72v120h-269v-260h272v-59h-272v-263z" />
    <glyph glyph-name="G" unicode="G" horiz-adv-x="780" 
d="M656 535c-34.667 42 -73.6641 73.332 -116.997 93.999c-43.333 22 -90.333 33 -141 33c-42 0 -81.333 -7.83301 -118 -23.5s-68.834 -37 -96.501 -64s-49.334 -58.667 -65.001 -95s-23.5 -75.5 -23.5 -117.5s7.66699 -81.333 23 -118s36.5 -68.834 63.5 -96.501
s58.833 -49.5 95.5 -65.5s76.334 -24 119.001 -24c34 0 66.333 5.16699 97 15.5s58.667 24.833 84 43.5s47.166 41.167 65.499 67.5s31.833 55.833 40.5 88.5h-358v62h437v-335h-66v166c-30 -57.333 -71.833 -101.666 -125.5 -132.999s-112.834 -47 -177.501 -47
c-30.667 0 -61.5 4.33301 -92.5 13s-60.333 21 -88 37s-53.167 35 -76.5 57s-42.666 46.333 -57.999 73c-4.66699 8 -10.167 18.667 -16.5 32s-12.333 28.5 -18 45.5s-10.5 35.667 -14.5 56s-6 41.166 -6 62.499c0 52.667 9.66699 101.334 29 146.001s45 82.334 77 113.001
c37.333 35.333 78.666 62.833 123.999 82.5s94.333 29.5 147 29.5c49.333 0 96.333 -9.83301 141 -29.5s83 -47.167 115 -82.5v93h66v-179h-66z" />
    <glyph glyph-name="H" unicode="H" horiz-adv-x="720" 
d="M542 648h-91v66h254v-66h-91v-582h91v-66h-254v66h91v267h-355v-267h92v-66h-255v66h91v582h-91v66h255v-66h-92v-259h355v259z" />
    <glyph glyph-name="I" unicode="I" horiz-adv-x="300" 
d="M187 66h91v-66h-254v66h91v582h-91v66h254v-66h-91v-582z" />
    <glyph glyph-name="J" unicode="J" horiz-adv-x="520" 
d="M95 164c2 -15.333 6.16699 -29.668 12.5 -43.001s14.5 -25 24.5 -35s21.667 -18 35 -24s28 -9 44 -9c19.333 0 36.833 4.16699 52.5 12.5s29.167 19.833 40.5 34.5c14 17.333 22 36 24 56s3 40.667 3 62v430h-92v66h255v-66h-91v-445c0 -28.667 -2 -54.167 -6 -76.5
s-15.333 -45.5 -34 -69.5c-18 -23.333 -40.667 -41 -68 -53s-56 -18 -86 -18c-26 0 -50.333 4.5 -73 13.5s-42.5 21.333 -59.5 37s-30.5 34.334 -40.5 56.001s-15.333 45.5 -16 71.5h75z" />
    <glyph glyph-name="K" unicode="K" horiz-adv-x="700" 
d="M676 0h-262v66h83l-310 294v-294h91v-66h-254v66h91v582h-91v66h254v-66h-91v-265l294 265h-80v66h258v-66h-86l-307 -275l326 -307h84v-66z" />
    <glyph glyph-name="L" unicode="L" horiz-adv-x="520" 
d="M493 184v-184h-469v66h91v582h-91v66h254v-66h-91v-582h234v118h72z" />
    <glyph glyph-name="M" unicode="M" horiz-adv-x="980" 
d="M182 66h94v-66h-257v66h91v582h-91v66h200l259 -606l284 606h198v-66h-92v-582h92v-66h-256v66h92v556l-292 -622h-56l-266 620v-554z" />
    <glyph glyph-name="N" unicode="N" horiz-adv-x="800" 
d="M688 0h-74l-427 597v-531h92v-66h-255v66h91v582h-91v66h164l428 -600v534h-91v66h254v-66h-91v-648z" />
    <glyph glyph-name="O" unicode="O" horiz-adv-x="800" 
d="M399 57c42 0 81.3301 8 117.997 24s68.834 37.833 96.501 65.5s49.334 59.834 65.001 96.501s23.5 76 23.5 118c0 40.667 -7.83301 79.334 -23.5 116.001s-37.167 68.5 -64.5 95.5s-59.333 48.5 -96 64.5s-76 24 -118 24s-81.5 -7.83301 -118.5 -23.5
s-69.333 -37 -97 -64s-49.5 -58.833 -65.5 -95.5s-24 -75.667 -24 -117c0 -42 7.83301 -81.333 23.5 -118s37.334 -68.834 65.001 -96.501s60 -49.334 97 -65.001s76.5 -23.5 118.5 -23.5v-1v0zM399.997 -14c-52 0 -100.831 9.66895 -146.498 29.002
s-85.667 45.833 -120 79.5s-61.333 73.167 -81 118.5s-29.5 94 -29.5 146s9.83301 100.667 29.5 146s46.5 85 80.5 119s74 60.667 120 80s95 29 147 29c51.333 0 99.666 -9.66699 144.999 -29s85 -45.833 119 -79.5s60.833 -72.834 80.5 -117.501
s29.5 -92.334 29.5 -143.001c0 -52 -9.66699 -101 -29 -147s-45.833 -86 -79.5 -120s-73.334 -61 -119.001 -81s-94.5 -30 -146.5 -30z" />
    <glyph glyph-name="P" unicode="P" 
d="M316 348c22.667 0 43.999 1.66797 63.999 5.00098s39 12.666 57 27.999c36.667 30.667 55 69.667 55 117c0 22.667 -5.16699 44.167 -15.5 64.5s-24.166 37.5 -41.499 51.5c-19.333 14.667 -38.333 24 -57 28s-39.667 6 -63 6h-128v-300h129zM186.999 66.001
l91 0.000976562v-66h-254v66h91v582h-91v66h292c30 0 59 -3.16699 87 -9.5s54.333 -18.5 79 -36.5c26 -19.333 46.167 -44 60.5 -74s21.5 -61.333 21.5 -94c0 -63.333 -23 -117 -69 -161c-25.333 -24.667 -51.833 -40.334 -79.5 -47.001s-58.5 -10 -92.5 -10h-136v-216z" />
    <glyph glyph-name="Q" unicode="Q" horiz-adv-x="860" 
d="M540 120l-62 51.999c-20 16 -42.667 29.667 -68 41c-22.667 11.333 -46.334 20 -71.001 26s-49.667 9 -75 9c-47.333 0 -92.333 -8.66699 -135 -26c12 -25.333 27.5 -48 46.5 -68s40.333 -37.167 64 -51.5s48.834 -25.333 75.501 -33s54 -11.5 82 -11.5
c30 0 58.333 3.33301 85 10s52.667 18.334 78 35.001zM607 142.999c30.667 28 54.1689 60.332 70.502 96.999s24.5 75.334 24.5 116.001c0 42.667 -7.83301 82.5 -23.5 119.5s-37.167 69.167 -64.5 96.5s-59.5 49 -96.5 65s-76.833 24 -119.5 24
c-41.333 0 -80.333 -7.83301 -117 -23.5s-68.667 -37 -96 -64s-48.833 -58.667 -64.5 -95s-23.5 -74.833 -23.5 -115.5c0 -13.333 1.5 -27 4.5 -41s6.5 -27.667 10.5 -41c24.667 8 50 14.333 76 19s52 7 78 7c35.333 0 68.333 -4.16699 99 -12.5s59.667 -20 87 -35
s53.666 -32.5 78.999 -52.5s50.666 -41.333 75.999 -64zM847.002 125.998l0.00390625 -146c-41.333 -0.666992 -81.5 5.5 -120.5 18.5s-75.5 31.167 -109.5 54.5c-67.333 -44.667 -140.333 -67 -219 -67c-52.667 0 -101.667 9.83301 -147 29.5s-84.833 46.5 -118.5 80.5
s-60 73.667 -79 119s-28.5 94 -28.5 146c0 51.333 9.66699 99.5 29 144.5s45.666 84.333 78.999 118s72.666 60.334 117.999 80.001s93.666 29.5 144.999 29.5c52 0 101 -9.66699 147 -29s86.167 -45.833 120.5 -79.5s61.333 -73.167 81 -118.5s29.5 -94 29.5 -146
c0 -48.667 -9.33301 -96.334 -28 -143.001s-46.334 -87 -83.001 -121c19.333 -12.667 39.5 -23.5 60.5 -32.5s43.167 -14.833 66.5 -17.5v80h57z" />
    <glyph glyph-name="R" unicode="R" horiz-adv-x="640" 
d="M624 0l-139 0.000976562l-221 308h27c27.333 0 53.833 0.833008 79.5 2.5s50.167 9.83398 73.5 24.501c25.333 15.333 45 35.666 59 60.999s21 52.666 21 81.999c0 25.333 -4.5 49 -13.5 71s-22.5 41.333 -40.5 58c-21.333 19.333 -43.5 31 -66.5 35s-48.167 6 -75.5 6
h-140v-582h85v-66h-249v66h92v582h-92v66h309c34.667 0 66.667 -3 96 -9s58 -20.667 86 -44c27.333 -23.333 47.666 -50.333 60.999 -81s20 -63.667 20 -99c0 -30 -5.5 -58.333 -16.5 -85s-26.167 -50 -45.5 -70s-42.166 -35.833 -68.499 -47.5s-54.833 -17.5 -85.5 -17.5
l149 -195h95v-66z" />
    <glyph glyph-name="S" unicode="S" horiz-adv-x="500" 
d="M374 543c-4.66699 40.667 -20.1699 72.0049 -46.5029 94.0049s-58.166 33 -95.499 33c-18 0 -35.333 -3 -52 -9s-31.167 -14.5 -43.5 -25.5s-22.333 -24.167 -30 -39.5s-11.5 -32.333 -11.5 -51c0 -19.333 4 -37.833 12 -55.5s19.667 -32.167 35 -43.5
c16 -12 35 -20.833 57 -26.5l62 -15.5c26 -6 51 -13 75 -21s46.667 -21 68 -39c22 -18 38.667 -39.667 50 -65s17 -52 17 -80c0 -24.667 -2.83301 -47.334 -8.5 -68.001s-16.5 -41 -32.5 -61c-44 -56 -103.333 -84 -178 -84c-33.333 0 -64 7 -92 21s-51.333 35 -70 63v-70
h-60v192h60c4.66699 -42.667 21.167 -76.834 49.5 -102.501s64.833 -38.5 109.5 -38.5c20 0 39.167 3.5 57.5 10.5s34.333 16.667 48 29s24.5 27.166 32.5 44.499s12 36.333 12 57c0 26 -4.66699 47.333 -14 64s-21.666 30.5 -36.999 41.5s-33 19.667 -53 26
s-40.667 12.166 -62 17.499c-24.667 6.66699 -48.167 13.334 -70.5 20.001s-44.166 17.667 -65.499 33c-24.667 18 -43.167 39.833 -55.5 65.5s-18.5 53.5 -18.5 83.5c0 25.333 3.66699 47.166 11 65.499s16 34.166 26 47.499c19.333 26 44.5 45.333 75.5 58
s63.5 19 97.5 19c28 0 55.5 -6.33301 82.5 -19s46.5 -32 58.5 -58v58h60v-171h-60z" />
    <glyph glyph-name="T" unicode="T" horiz-adv-x="540" 
d="M311 66h91v-66h-254v66h91v582h-155v-125h-62v191h506v-191h-62v125h-155v-582z" />
    <glyph glyph-name="U" unicode="U" horiz-adv-x="700" 
d="M582 237c0 -33.333 -3.66797 -64.3301 -11.001 -92.9971s-22.666 -56.334 -45.999 -83.001c-22 -24.667 -48.167 -43.334 -78.5 -56.001s-62.5 -19 -96.5 -19s-65.833 5.83301 -95.5 17.5s-56.167 30.167 -79.5 55.5c-25.333 28 -41.5 57.167 -48.5 87.5
s-10.5 63.5 -10.5 99.5v402h-91v66h249v-66h-86v-394c0 -24 1.5 -47 4.5 -69s11.5 -43.333 25.5 -64c15.333 -21.333 34.333 -37.166 57 -47.499s47.334 -15.5 74.001 -15.5c24.667 0 47.667 4.33301 69 13s39.666 22.667 54.999 42c16.667 21.333 27 43.666 31 66.999
s6 47.666 6 72.999v395h-86v66h249v-66h-91v-411z" />
    <glyph glyph-name="V" unicode="V" horiz-adv-x="780" 
d="M429 0h-76l-256 648h-90v66h255v-66h-89l220 -548l224 548h-91v66h251v-66h-86z" />
    <glyph glyph-name="W" unicode="W" horiz-adv-x="1040" 
d="M753 0h-77l-158 573l-161 -573h-75l-188 648h-87v66h255v-66h-93l153 -538l167 604h57l167 -603l150 537h-96v66h256v-66h-90z" />
    <glyph glyph-name="X" unicode="X" horiz-adv-x="740" 
d="M634 66h83v-66h-256v66h91l-180 248l-180 -248h87v-66h-257v66h89l218 301l-205 281h-86v66h256v-66h-87l165 -229l163 229h-91v66h257v-66h-83l-204 -281z" />
    <glyph glyph-name="Y" unicode="Y" horiz-adv-x="680" 
d="M381 66h91v-66h-255v66h92v174l-217 408h-85v66h249v-66h-88l177 -340l168 340h-92v66h250v-66h-85l-205 -408v-174z" />
    <glyph glyph-name="Z" unicode="Z" horiz-adv-x="520" 
d="M506 0h-483v59l371 589h-297v-119h-62v185h447v-57l-372 -591h334v119h62v-185z" />
    <glyph glyph-name="bracketleft" unicode="[" horiz-adv-x="300" 
d="M260 -129h-225v843h225v-64h-151v-712h151v-67z" />
    <glyph glyph-name="backslash" unicode="\" 
d="M81 714h69l298 -714h-67z" />
    <glyph glyph-name="bracketright" unicode="]" horiz-adv-x="300" 
d="M186 -62v712h-150v64h224v-843h-224v67h150z" />
    <glyph glyph-name="asciicircum" unicode="^" horiz-adv-x="660" 
d="M50 174l246 540h56l248 -540h-62l-215 468l-212 -468h-61z" />
    <glyph glyph-name="underscore" unicode="_" horiz-adv-x="500" 
d="M500 -75v-50h-500v50h500z" />
    <glyph glyph-name="grave" unicode="`" horiz-adv-x="420" 
d="M318 595l-247 134l28 58l244 -142z" />
    <glyph glyph-name="a" unicode="a" horiz-adv-x="660" 
d="M292 469c-29.333 0 -56.833 -5.49902 -82.5 -16.499s-48 -26 -67 -45s-34.167 -41.333 -45.5 -67s-17 -52.834 -17 -81.501c0 -28 5.5 -54.667 16.5 -80s26 -47.5 45 -66.5s41.167 -34.167 66.5 -45.5s52.333 -17 81 -17c30 0 57.833 5.5 83.5 16.5s48 26 67 45
s34 41.333 45 67s16.5 53.167 16.5 82.5c0 28.667 -5.5 55.667 -16.5 81s-26 47.333 -45 66s-41.167 33.5 -66.5 44.5s-52.333 16.5 -81 16.5zM500 109.001c-23.333 -40 -53.333 -70.501 -90 -91.501s-78 -31.5 -124 -31.5c-48 0 -92.5 11 -133.5 33s-73.167 52 -96.5 90
c-13.333 21.333 -24 44.5 -32 69.5s-11.333 52.167 -10 81.5c0 18.667 1.33301 35.334 4 50.001s6 27.667 10 39s8.66699 21.833 14 31.5l16 29.5c10.667 18.667 24 35.667 40 51s34 28.5 54 39.5s41.167 19.333 63.5 25s45.5 8.5 69.5 8.5c48 0 89.833 -10.667 125.5 -32
s65.5 -52 89.5 -92v115h153v-62h-87v-401h87v-62h-153v109z" />
    <glyph glyph-name="b" unicode="b" horiz-adv-x="660" 
d="M379 52c28.667 0 55.667 5.49805 81 16.498s47.333 26 66 45s33.334 41.333 44.001 67s16 52.834 16 81.501s-5.5 55.5 -16.5 80.5s-25.833 46.833 -44.5 65.5s-40.667 33.334 -66 44.001s-52.333 16 -81 16c-30 0 -57.833 -5.33301 -83.5 -16s-48 -25.334 -67 -44.001
s-34 -40.667 -45 -66s-16.5 -53 -16.5 -83c0 -29.333 5.66699 -56.666 17 -81.999s26.666 -47.333 45.999 -66s41.833 -33.167 67.5 -43.5s53.167 -15.5 82.5 -15.5zM169 407.998c21.333 39.333 50.1641 70.1689 86.4971 92.502s76.833 33.5 121.5 33.5
c38 0 73.833 -7.16699 107.5 -21.5s62.834 -33.833 87.501 -58.5s44.167 -53.834 58.5 -87.501s21.5 -69.5 21.5 -107.5c0 -28.667 -4.33301 -56 -13 -82s-19 -48.667 -31 -68c-9.33301 -15.333 -21.666 -30.333 -36.999 -45s-32.666 -27.834 -51.999 -39.501
s-40.5 -21 -63.5 -28s-46.5 -10.5 -70.5 -10.5c-45.333 0 -87 10.5 -125 31.5s-68.333 51.5 -91 91.5v-109h-154v62h88v590h-88v62h154v-306z" />
    <glyph glyph-name="c" unicode="c" horiz-adv-x="560" 
d="M529 367h-61.999c-19.333 31.333 -45 56 -77 74s-66.333 27 -103 27c-29.333 0 -56.5 -5.5 -81.5 -16.5s-46.833 -26 -65.5 -45s-33.334 -41.333 -44.001 -67s-16 -52.834 -16 -81.501c0 -29.333 5.5 -56.5 16.5 -81.5s26 -46.833 45 -65.5s41.5 -33.167 67.5 -43.5
s53.667 -15.5 83 -15.5c18.667 0 37.167 2.5 55.5 7.5s35.333 12.333 51 22s29.834 21.5 42.501 35.5s23 29.667 31 47h74c-10 -27.333 -23.667 -52 -41 -74s-37.5 -40.667 -60.5 -56s-48 -27.166 -75 -35.499s-54.833 -12.5 -83.5 -12.5
c-37.333 0 -72.5 7.16699 -105.5 21.5s-61.833 33.833 -86.5 58.5s-44.167 53.5 -58.5 86.5s-21.5 67.833 -21.5 104.5c0 38 6.83301 73.5 20.5 106.5s32.5 61.833 56.5 86.5c25.333 25.333 54.166 45.666 86.499 60.999s67.5 23 105.5 23
c37.333 0 71.333 -7.16699 102 -21.5s58 -35.166 82 -62.499v75h62v-158z" />
    <glyph glyph-name="d" unicode="d" horiz-adv-x="660" 
d="M292 48c29.333 0 56.834 5.66406 82.501 16.9971s48 26.666 67 45.999s33.833 42 44.5 68s16 53.667 16 83c0 28.667 -5.5 55.834 -16.5 81.501s-26 47.834 -45 66.501s-41.333 33.5 -67 44.5s-52.834 16.5 -81.501 16.5c-29.333 0 -57 -5.66699 -83 -17
s-48.5 -26.666 -67.5 -45.999s-34 -41.833 -45 -67.5s-16.5 -53.167 -16.5 -82.5s5.66699 -56.666 17 -81.999s26.666 -47.5 45.999 -66.5s41.833 -34 67.5 -45s52.834 -16.5 81.501 -16.5zM500.001 110.997c-22.667 -39.333 -52.665 -70.001 -89.998 -92.001
s-79 -33 -125 -33c-20.667 0 -41.834 3.16699 -63.501 9.5s-42.5 15 -62.5 26s-38.667 24.167 -56 39.5s-31.666 32 -42.999 50c-13.333 21.333 -24.333 45.333 -33 72s-13 53 -13 79c0 36.667 7.16699 71.334 21.5 104.001s33.666 61.5 57.999 86.5
s52.666 44.833 84.999 59.5s66.833 22 103.5 22c46 0 88.5 -11.333 127.5 -34s69.167 -54.667 90.5 -96v248h-88v62h154v-652h88v-62h-154v111z" />
    <glyph glyph-name="e" unicode="e" 
d="M497 292c-4 26.667 -12.335 51.168 -25.002 73.501s-28.667 41.5 -48 57.5s-41.166 28.5 -65.499 37.5s-49.833 13.5 -76.5 13.5c-25.333 0 -49.5 -4.83301 -72.5 -14.5s-43.667 -22.834 -62 -39.501s-33.666 -36 -45.999 -58s-19.833 -45.333 -22.5 -70h418z
M536.998 147.001c-11.333 -24.667 -25.502 -46.8301 -42.502 -66.4971s-36.5 -36.5 -58.5 -50.5s-45.667 -24.833 -71 -32.5s-51.333 -11.5 -78 -11.5c-38 0 -73.5 7 -106.5 21s-62 33.333 -87 58s-44.667 53.5 -59 86.5s-21.5 68.167 -21.5 105.5s7 72.666 21 105.999
s33 62.666 57 87.999s52.5 45.5 85.5 60.5s68.5 22.5 106.5 22.5c38.667 0 74.834 -7.16699 108.501 -21.5s63 -33.833 88 -58.5s44.5 -53.834 58.5 -87.501s21 -69.834 21 -108.501v-20h-480c1.33301 -27.333 7.83301 -52.666 19.5 -75.999s26.834 -43.666 45.501 -60.999
s40 -31 64 -41s49.667 -15 77 -15c38 0 73 8.66699 105 26s57.667 42.666 77 75.999h70z" />
    <glyph glyph-name="f" unicode="f" horiz-adv-x="300" 
d="M170 62h89.999v-62h-245v62h89v403h-89v64h88v8l2 42.5c0.666992 13.667 2.66699 26.667 6 39s8.33301 24.333 15 36s16 22.834 28 33.501c17.333 16 36.833 27.167 58.5 33.5s44.167 10.166 67.5 11.499v-59c-13.333 -1.33301 -26.166 -3.83301 -38.499 -7.5
s-23.833 -9.83398 -34.5 -18.501c-18 -13.333 -28.5 -29.166 -31.5 -47.499s-4.83301 -37.833 -5.5 -58.5v-13h90v-64h-90v-403z" />
    <glyph glyph-name="g" unicode="g" horiz-adv-x="660" 
d="M292 48c29.333 0 56.668 5.66504 82.001 16.998s47.5 26.666 66.5 45.999s34 41.833 45 67.5s16.5 53.167 16.5 82.5c0 28.667 -5.5 56 -16.5 82s-26 48.5 -45 67.5s-41.333 34.167 -67 45.5s-53.167 17 -82.5 17s-56.833 -5.66699 -82.5 -17
s-48.167 -26.666 -67.5 -45.999s-34.5 -42 -45.5 -68s-16.5 -53.667 -16.5 -83s5.66699 -56.666 17 -81.999s26.666 -47.666 45.999 -66.999s41.833 -34.5 67.5 -45.5s53.167 -16.5 82.5 -16.5zM125.002 -57.002c16 -32.667 39.833 -57.999 71.5 -75.999s65.5 -27 101.5 -27
c27.333 0 53.833 5.83301 79.5 17.5s47.5 27.167 65.5 46.5c22.667 23.333 37.334 47.166 44.001 71.499s10 52.166 10 83.499v56c-20.667 -40.667 -49.834 -72.334 -87.501 -95.001s-79.834 -34 -126.501 -34c-18.667 0 -39.167 2.83301 -61.5 8.5
s-44.166 13.834 -65.499 24.501s-41.333 24 -60 40s-33.334 34.667 -44.001 56c-9.33301 17.333 -18.166 38.5 -26.499 63.5s-12.5 52.5 -12.5 82.5c0 32 4.5 61 13.5 87s19.5 47.667 31.5 65c26.667 38 60 67.667 100 89s83 32 129 32c45.333 0 86.833 -10.833 124.5 -32.5
s66.167 -51.167 85.5 -88.5v112h154v-62h-88v-391c0 -20 -0.833008 -38.833 -2.5 -56.5s-4.66699 -34.834 -9 -51.501s-10.833 -32.667 -19.5 -48s-20 -30.666 -34 -45.999c-26.667 -29.333 -57.667 -51.166 -93 -65.499s-72.333 -21.5 -111 -21.5
c-26 0 -51.667 3.5 -77 10.5s-49 17.167 -71 30.5s-41.5 30 -58.5 50s-29.833 43 -38.5 69h76z" />
    <glyph glyph-name="h" unicode="h" horiz-adv-x="640" 
d="M169 427c17.333 33.333 41.166 59.501 71.499 78.501s64.5 28.5 102.5 28.5c62.667 0 115 -24.667 157 -74c22.667 -27.333 36.5 -55.833 41.5 -85.5s7.5 -61.167 7.5 -94.5v-218h88v-62h-242v62h88v191c0 24.667 -0.666992 49.167 -2 73.5s-8.33301 47.166 -21 68.499
c-13.333 23.333 -31.833 41.666 -55.5 54.999s-48.834 20 -75.501 20c-23.333 0 -45.166 -4.33301 -65.499 -13s-38.166 -21.667 -53.499 -39c-10 -11.333 -17.833 -22.666 -23.5 -33.999s-9.66699 -23 -12 -35s-3.83301 -24.5 -4.5 -37.5s-1 -26.5 -1 -40.5v-209h88v-62
h-242v62h88v590h-88v62h154v-287z" />
    <glyph glyph-name="i" unicode="i" horiz-adv-x="260" 
d="M171 611h-66v103h66v-103zM171 62h88v-62h-244v62h90v401h-88v62h154v-463z" />
    <glyph glyph-name="j" unicode="j" horiz-adv-x="240" 
d="M174 611h-66v103h66v-103zM174 10c0 -30 -2.33301 -56.6689 -7 -80.002s-13 -43.666 -25 -60.999s-28.333 -31.666 -49 -42.999s-47 -20 -79 -26v63c24.667 4.66699 43.5 12.667 56.5 24s22.333 25 28 41s8.66699 33.5 9 52.5s0.5 38.5 0.5 58.5v424h-88v62h154v-515z
" />
    <glyph glyph-name="k" unicode="k" 
d="M171 291l193 172h-79v62h247v-62h-86l-197 -179l221 -222h95v-62h-258v62h74l-210 212v-212h80v-62h-236v62h90v590h-90v62h156v-423z" />
    <glyph glyph-name="l" unicode="l" horiz-adv-x="280" 
d="M175 62h87v-62h-247v62h94v590h-88v62h154v-652z" />
    <glyph glyph-name="m" unicode="m" horiz-adv-x="980" 
d="M170 434c15.333 31.333 36.6621 55.833 63.9951 73.5s59.333 26.5 96 26.5c37.333 0 70 -8.66699 98 -26s50.667 -42 68 -74l11 -20c7.33301 18 17.166 34.5 29.499 49.5s26.333 27.667 42 38s32.667 18.333 51 24s36.833 8.5 55.5 8.5c50.667 0 90.5 -10.5 119.5 -31.5
s51.167 -50.5 66.5 -88.5c6.66699 -15.333 10.834 -31.5 12.501 -48.5s2.5 -39.833 2.5 -68.5v-235h88v-62h-242v62h88v220c0 12 -0.5 24.667 -1.5 38s-2.66699 26.166 -5 38.499s-5.66602 23.833 -9.99902 34.5s-9.5 19.667 -15.5 27c-15.333 17.333 -32.666 30 -51.999 38
s-39.333 12 -60 12c-19.333 0 -39.166 -4.16699 -59.499 -12.5s-37.5 -20.5 -51.5 -36.5c-17.333 -19.333 -27.833 -38.5 -31.5 -57.5s-5.5 -40.833 -5.5 -65.5v-236h88v-62h-242v62h88v222c0 31.333 -3.5 59 -10.5 83s-14.167 41.667 -21.5 53
c-13.333 20 -30.333 33.333 -51 40s-41 10 -61 10c-25.333 0 -46.666 -4.16699 -63.999 -12.5s-32.666 -20.5 -45.999 -36.5c-16.667 -19.333 -27.167 -39.666 -31.5 -60.999s-6.5 -44.333 -6.5 -69v-229h88v-62h-242v62h88v401h-88v62h154v-91z" />
    <glyph glyph-name="n" unicode="n" horiz-adv-x="660" 
d="M169 433c16.667 32.667 41.1631 57.668 73.4961 75.001s66.5 26 102.5 26c14.667 0 30.834 -2 48.501 -6s34.834 -10.167 51.501 -18.5s32.167 -18.833 46.5 -31.5s25.833 -27.667 34.5 -45c6.66699 -13.333 13.167 -31.5 19.5 -54.5s9.5 -50.5 9.5 -82.5v-234h88v-62
h-242v62h88v210c0 23.333 -1.16699 46.166 -3.5 68.499s-9.5 43.833 -21.5 64.5c-7.33301 12 -16.166 22.167 -26.499 30.5s-21.666 15 -33.999 20s-25 8.5 -38 10.5s-25.833 3 -38.5 3c-23.333 0 -45.833 -4.83301 -67.5 -14.5s-40.167 -23.167 -55.5 -40.5
c-17.333 -20 -27.5 -41.167 -30.5 -63.5s-4.5 -45.833 -4.5 -70.5v-218h88v-62h-242v62h88v401h-88v62h154v-92z" />
    <glyph glyph-name="o" unicode="o" 
d="M288 51c28.667 0 55.832 5.5 81.499 16.5s47.834 26 66.501 45s33.5 41.167 44.5 66.5s16.5 52.333 16.5 81s-5.33301 55.667 -16 81s-25.5 47.5 -44.5 66.5s-41.167 34 -66.5 45s-52.333 16.5 -81 16.5c-29.333 0 -56.666 -5.5 -81.999 -16.5s-47.5 -25.833 -66.5 -44.5
s-34 -40.667 -45 -66s-16.5 -52.333 -16.5 -81s5.33301 -55.667 16 -81s25.5 -47.5 44.5 -66.5s41.167 -34.167 66.5 -45.5s52.666 -17 81.999 -17zM287.998 -14c-38 0 -73.667 7.16602 -107 21.499s-62.5 33.833 -87.5 58.5s-44.667 53.667 -59 87
s-21.5 68.666 -21.5 105.999c0 38 7.33301 73.833 22 107.5s34.5 62.834 59.5 87.501s54.333 44.167 88 58.5s69.5 21.5 107.5 21.5c37.333 0 72.5 -7.16699 105.5 -21.5s62 -33.666 87 -57.999s44.667 -53 59 -86s21.5 -67.833 21.5 -104.5c0 -38 -7.16699 -74 -21.5 -108
s-33.833 -63.5 -58.5 -88.5s-53.667 -44.833 -87 -59.5s-69.333 -22 -108 -22z" />
    <glyph glyph-name="p" unicode="p" horiz-adv-x="660" 
d="M378 48c28.667 0 55.8369 5.66211 81.5039 16.9951s48 26.5 67 45.5s34.167 41.333 45.5 67s17 53.167 17 82.5c0 32.667 -5.66699 62.334 -17 89.001s-26.5 49.334 -45.5 68.001s-41 32.834 -66 42.501s-51.167 13.834 -78.5 12.501
c-28.667 -1.33301 -55.834 -7 -81.501 -17s-48.334 -24 -68.001 -42s-35.334 -39.833 -47.001 -65.5s-17.5 -54.5 -17.5 -86.5c0 -29.333 5.5 -56.833 16.5 -82.5s26 -48.167 45 -67.5s41.167 -34.666 66.5 -45.999s52.666 -17 81.999 -17zM169.003 407.995
c23.333 41.333 53.498 72.667 90.498 94s79.167 32 126.5 32c20.667 0 41.834 -2.5 63.501 -7.5s42.5 -12.5 62.5 -22.5s38.5 -23 55.5 -39s31.833 -35 44.5 -57c10 -17.333 19.667 -38 29 -62s14 -52.667 14 -86c0 -38 -7 -73.5 -21 -106.5s-33.167 -62 -57.5 -87
s-52.833 -44.667 -85.5 -59s-67.667 -21.5 -105 -21.5c-44.667 0 -86.667 10.833 -126 32.5s-69.666 52.5 -90.999 92.5v-244h88v-62h-242v62h88v596h-88v62h154v-117z" />
    <glyph glyph-name="q" unicode="q" horiz-adv-x="660" 
d="M291 48c29.333 0 56.665 5.50098 81.998 16.501s47.5 26.167 66.5 45.5s34.167 41.833 45.5 67.5s17 53.167 17 82.5c0 26.667 -5.5 52.667 -16.5 78s-26.167 48 -45.5 68s-42 36 -68 48s-54 18 -84 18c-30 2 -57.667 -1.83301 -83 -11.5s-47.166 -24 -65.499 -43
s-32.833 -41.833 -43.5 -68.5s-16 -56.334 -16 -89.001c0 -29.333 5.66699 -56.833 17 -82.5s26.5 -48.167 45.5 -67.5s41.333 -34.5 67 -45.5s52.834 -16.5 81.501 -16.5zM498.999 110.001c-10 -19.333 -22.832 -36.665 -38.499 -51.998s-33 -28.333 -52 -39
s-39.167 -18.834 -60.5 -24.501s-43 -8.5 -65 -8.5c-38 0 -73.333 7.16699 -106 21.5s-61 33.833 -85 58.5s-43 53.5 -57 86.5s-21 68.5 -21 106.5c0 23.333 2.83301 47.666 8.5 72.999s15.5 50.333 29.5 75c9.33301 16.667 21.666 32.667 36.999 48
s32.833 28.833 52.5 40.5s41.5 21 65.5 28s49.333 10.5 76 10.5c46.667 0 88.667 -10.833 126 -32.5s67.333 -53.167 90 -94.5v118h154v-62h-88v-596h88v-62h-242v62h88v243z" />
    <glyph glyph-name="r" unicode="r" horiz-adv-x="360" 
d="M169 418c6 18 14.666 33.666 25.999 46.999s24.333 24.333 39 33s30.834 15.167 48.501 19.5s35.834 6.83301 54.501 7.5v-62c-58.667 -5.33301 -101.334 -24.166 -128.001 -56.499s-40 -76.833 -40 -133.5v-211h88v-62h-242v62h88v401h-88v62h154v-107z" />
    <glyph glyph-name="s" unicode="s" horiz-adv-x="420" 
d="M314 392c-0.666992 13.333 -4.00293 25.5 -10.0029 36.5s-14 20.167 -24 27.5c-21.333 16 -46 24 -74 24c-13.333 0 -26.166 -2 -38.499 -6s-23.333 -9.66699 -33 -17s-17.334 -16.666 -23.001 -27.999s-8.5 -24 -8.5 -38c0 -16.667 3.5 -30.334 10.5 -41.001
s16.167 -19.334 27.5 -26.001s23.833 -12 37.5 -16s27.167 -7.33301 40.5 -10c20.667 -4 41.167 -8.66699 61.5 -14s39.5 -13.666 57.5 -24.999c21.333 -12 37.5 -28.167 48.5 -48.5s16.5 -42.5 16.5 -66.5c0 -17.333 -2.33301 -32.333 -7 -45s-10 -24.667 -16 -36
c-12.667 -24 -33.667 -42.833 -63 -56.5s-59.333 -20.5 -90 -20.5c-32 0 -60.333 6 -85 18s-45 31.667 -61 59v-63h-54v150h54c3.33301 -32 17.5 -58.5 42.5 -79.5s55.5 -31.5 91.5 -31.5c14.667 0 28.834 2.33301 42.501 7s25.834 11.334 36.501 20.001
s19.167 19.167 25.5 31.5s9.5 26.166 9.5 41.499c0 18 -3.5 32.667 -10.5 44s-16.167 20.333 -27.5 27s-24.166 11.834 -38.499 15.501s-28.833 7.16699 -43.5 10.5c-20.667 4.66699 -41 9.5 -61 14.5s-39 13.167 -57 24.5c-19.333 12.667 -34.5 28.5 -45.5 47.5
s-16.5 40.167 -16.5 63.5c0 18 2 34.167 6 48.5s11 28.166 21 41.499c8 10 17.333 18.667 28 26s22.167 13.333 34.5 18s25.166 8.16699 38.499 10.5s26 3.5 38 3.5c24.667 0 47.334 -4.5 68.001 -13.5s37.667 -23.833 51 -44.5v49h54v-133h-54z" />
    <glyph glyph-name="t" unicode="t" horiz-adv-x="320" 
d="M180 62h124v-62h-190v463h-101v62h101v189h66v-189h116v-62h-116v-401z" />
    <glyph glyph-name="u" unicode="u" horiz-adv-x="640" 
d="M478 88c-17.333 -32 -41.3311 -56.9961 -71.998 -74.9961s-65 -27 -103 -27c-19.333 0 -38 2.83301 -56 8.5s-34.833 13.167 -50.5 22.5s-29.667 20.166 -42 32.499s-22.5 25.166 -30.5 38.499c-8.66699 14 -15.334 31.167 -20.001 51.5s-7 46.166 -7 77.499v246h-88v62
h154v-283c0 -24.667 1.5 -48.5 4.5 -71.5s12.5 -45.167 28.5 -66.5c31.333 -41.333 73.333 -60 126 -56c26 2 48.833 8.16699 68.5 18.5s36.167 23.166 49.5 38.499c8.66699 10.667 15.667 21.167 21 31.5s9.16602 21 11.499 32s3.83301 22.333 4.5 34s1 24.167 1 37.5v223
h-88v62h154v-463h89v-62h-155v88z" />
    <glyph glyph-name="v" unicode="v" horiz-adv-x="640" 
d="M357 0h-74l-188 463h-88v62h241v-62h-80l153 -384l157 384h-84v62h239v-62h-84z" />
    <glyph glyph-name="w" unicode="w" horiz-adv-x="900" 
d="M641 0h-69l-117 363l-133 -363h-68l-159 463h-88v62h238v-62h-83l132 -377l135 388h55l123 -383l134 372h-85v62h239v-62h-88z" />
    <glyph glyph-name="x" unicode="x" horiz-adv-x="600" 
d="M489 62h87v-62h-239v62h70l-112 154l-112 -154h70v-62h-238v62h86l149 201l-150 200h-82v62h235v-62h-72l114 -152l112 152h-76v62h236v-62h-81l-147 -200z" />
    <glyph glyph-name="y" unicode="y" horiz-adv-x="640" 
d="M291 -133h86v-62h-243v62h88l54 129l-185 467h-84v62h240v-62h-83l148 -384l157 384h-82v62h238v-62h-84z" />
    <glyph glyph-name="z" unicode="z" horiz-adv-x="420" 
d="M412 159v-159h-399v56l301 407h-226v-101h-59v163h368v-61l-295 -402h251v97h59z" />
    <glyph glyph-name="braceleft" unicode="{" horiz-adv-x="300" 
d="M182 -11c0 -30.667 5.16797 -54.667 15.501 -72s31.166 -30.666 62.499 -39.999c-20 -0.666992 -38.667 0.166016 -56 2.49902s-34.666 9.83301 -51.999 22.5s-27.833 28.5 -31.5 47.5s-5.5 38.167 -5.5 57.5v184c0 15.333 -0.833008 28.333 -2.5 39
s-7.83398 22.334 -18.501 35.001c-14.667 16.667 -34 27.667 -58 33c18 3.33301 35 10.666 51 21.999c14.667 11.333 23 24.166 25 38.499s3 29.833 3 46.5v163c0 27.333 2.16699 50.5 6.5 69.5s12 34.333 23 46s25.833 20 44.5 25s42.334 6.83301 71.001 5.5
c-30 -8.66699 -50.5 -21.834 -61.5 -39.501s-16.5 -41.5 -16.5 -71.5v-172c0 -17.333 -1 -33.166 -3 -47.499s-6 -27.166 -12 -38.499s-14.833 -21 -26.5 -29s-26.834 -14 -45.501 -18c36 -8 59.5 -22.333 70.5 -43s16.5 -48 16.5 -82v-184z" />
    <glyph glyph-name="bar" unicode="|" horiz-adv-x="660" 
d="M356 750v-1000h-62v1000h62z" />
    <glyph glyph-name="braceright" unicode="}" horiz-adv-x="300" 
d="M114 603c0 30 -5.33789 53.834 -16.0049 71.501s-31 30.834 -61 39.501c28.667 1.33301 52.334 -0.5 71.001 -5.5s33.334 -13.333 44.001 -25s18.167 -27 22.5 -46s6.5 -42.167 6.5 -69.5v-163c0 -16.667 1 -32.167 3 -46.5s10.667 -27.166 26 -38.499
c14.667 -11.333 31.334 -18.666 50.001 -21.999c-11.333 -2.66699 -22 -6.66699 -32 -12s-18.667 -12.333 -26 -21c-10.667 -12.667 -16.834 -24.334 -18.501 -35.001s-2.5 -23.667 -2.5 -39v-184c0 -19.333 -1.66699 -38.5 -5 -57.5s-13.666 -34.833 -30.999 -47.5
s-34.666 -20 -51.999 -22s-36 -3 -56 -3c30.667 9.33301 51.167 22.666 61.5 39.999s15.5 41.333 15.5 72v184c0 34 5.5 61.333 16.5 82s34.5 35 70.5 43c-18.667 4 -33.667 10 -45 18s-20.166 17.667 -26.499 29s-10.5 24.166 -12.5 38.499s-3 30.166 -3 47.499v172z" />
    <glyph glyph-name="asciitilde" unicode="~" horiz-adv-x="660" 
d="M598 390c-9.33301 -13.333 -18.834 -25.998 -28.501 -37.998s-20.167 -22.833 -31.5 -32.5s-24 -17.334 -38 -23.001s-29.667 -8.5 -47 -8.5c-18 0 -34.833 2.5 -50.5 7.5s-31.834 10.5 -48.501 16.5l-53 20l-46 17c-16 6 -32 9 -48 9
c-13.333 0 -25.166 -2.16699 -35.499 -6.5s-19.666 -10.333 -27.999 -18s-16 -16.334 -23 -26.001l-20.5 -29.5l-47 30c9.33301 14.667 19.166 28.667 29.499 42s21.666 25 33.999 35s26 17.833 41 23.5s32.167 8.5 51.5 8.5s40 -3.5 62 -10.5s43.667 -15.167 65 -24.5
l62.5 -24c19.667 -7.33301 37.167 -11 52.5 -11c24.667 0 44.334 7.5 59.001 22.5s28.334 31.833 41.001 50.5z" />
    <glyph glyph-name="Euro" 
d="M469 0l0.00292969 88.9971c-8.66699 -21.333 -19.834 -38.666 -33.501 -51.999s-28.167 -23.666 -43.5 -30.999s-30.666 -12.5 -45.999 -15.5s-29.333 -4.5 -42 -4.5c-40 0 -74.167 8 -102.5 24s-51.5 37.167 -69.5 63.5s-31.167 56.333 -39.5 90
s-12.5 67.834 -12.5 102.501h-77l30 66h47v70h-77l30 66h47c2 32.667 7.66699 64.834 17 96.501s23.166 60 41.499 85s41.166 45.167 68.499 60.5s59.666 23 96.999 23c13.333 0 27.833 -1.5 43.5 -4.5s31 -8.16699 46 -15.5s29.167 -17.833 42.5 -31.5
s24.333 -30.834 33 -51.501v84h66v-174h-83c-7.33301 27.333 -16.666 49.333 -27.999 66s-23.666 29.5 -36.999 38.5s-27.166 15 -41.499 18s-28.5 4.5 -42.5 4.5c-28 0 -51.5 -6 -70.5 -18s-34.333 -27.5 -46 -46.5s-20.167 -40.333 -25.5 -64
s-8.66602 -47.167 -9.99902 -70.5h278l-30 -66h-248v-70h216l-30 -66h-186c0 -25.333 2.16699 -50.833 6.5 -76.5s12 -48.667 23 -69s26.333 -36.833 46 -49.5s45.5 -19 77.5 -19c13.333 0 27.166 1.5 41.499 4.5s28.166 9 41.499 18s25.666 21.833 36.999 38.5
s20.666 38.667 27.999 66h83v-179h-66z" />
    <glyph glyph-name="Euro" unicode="&#x20ac;" 
d="M469 0l0.00292969 88.9971c-8.66699 -21.333 -19.834 -38.666 -33.501 -51.999s-28.167 -23.666 -43.5 -30.999s-30.666 -12.5 -45.999 -15.5s-29.333 -4.5 -42 -4.5c-40 0 -74.167 8 -102.5 24s-51.5 37.167 -69.5 63.5s-31.167 56.333 -39.5 90
s-12.5 67.834 -12.5 102.501h-77l30 66h47v70h-77l30 66h47c2 32.667 7.66699 64.834 17 96.501s23.166 60 41.499 85s41.166 45.167 68.499 60.5s59.666 23 96.999 23c13.333 0 27.833 -1.5 43.5 -4.5s31 -8.16699 46 -15.5s29.167 -17.833 42.5 -31.5
s24.333 -30.834 33 -51.501v84h66v-174h-83c-7.33301 27.333 -16.666 49.333 -27.999 66s-23.666 29.5 -36.999 38.5s-27.166 15 -41.499 18s-28.5 4.5 -42.5 4.5c-28 0 -51.5 -6 -70.5 -18s-34.333 -27.5 -46 -46.5s-20.167 -40.333 -25.5 -64
s-8.66602 -47.167 -9.99902 -70.5h278l-30 -66h-248v-70h216l-30 -66h-186c0 -25.333 2.16699 -50.833 6.5 -76.5s12 -48.667 23 -69s26.333 -36.833 46 -49.5s45.5 -19 77.5 -19c13.333 0 27.166 1.5 41.499 4.5s28.166 9 41.499 18s25.666 21.833 36.999 38.5
s20.666 38.667 27.999 66h83v-179h-66z" />
    <glyph glyph-name="Zcaron" horiz-adv-x="520" 
d="M281 806h-39l-171 138h86l109 -82l107 82h83zM506 0h-483v59l371 589h-297v-119h-62v185h447v-57l-372 -591h334v119h62v-185z" />
    <glyph glyph-name="Zcaron" unicode="&#x17d;" horiz-adv-x="520" 
d="M281 806h-39l-171 138h86l109 -82l107 82h83zM506 0h-483v59l371 589h-297v-119h-62v185h447v-57l-372 -591h334v119h62v-185z" />
    <glyph glyph-name="zcaron" horiz-adv-x="420" 
d="M231 617h-39l-171 138h86l109 -82l107 82h83zM412 159v-159h-399v56l301 407h-226v-101h-59v163h368v-61l-295 -402h251v97h59z" />
    <glyph glyph-name="zcaron" unicode="&#x17e;" horiz-adv-x="420" 
d="M231 617h-39l-171 138h86l109 -82l107 82h83zM412 159v-159h-399v56l301 407h-226v-101h-59v163h368v-61l-295 -402h251v97h59z" />
    <glyph glyph-name="exclamdown" unicode="&#xa1;" horiz-adv-x="140" 
d="M36 342h69v-532h-69v532zM36 525h69v-109h-69v109z" />
    <glyph glyph-name="cent" unicode="&#xa2;" 
d="M275 510c-19.333 -3.33301 -37.001 -9.50098 -53.001 -18.501s-29.833 -20.5 -41.5 -34.5s-20.667 -29.667 -27 -47s-9.5 -36 -9.5 -56c0 -19.333 3.33301 -37.5 10 -54.5s15.834 -32.5 27.501 -46.5s25.5 -25.667 41.5 -35s33.333 -15.666 52 -18.999v311z
M431.999 442.999c-10.667 17.333 -24.835 31.9971 -42.502 43.9971s-36.5 19.667 -56.5 23v-311c20.667 5.33301 38.834 13.333 54.501 24s29.834 24.667 42.501 42h74c-14.667 -36 -37.334 -65.167 -68.001 -87.5s-65 -37.166 -103 -44.499v-93h-58v93
c-28 2.66699 -54.167 10.5 -78.5 23.5s-45.333 29.5 -63 49.5s-31.667 42.833 -42 68.5s-15.5 52.5 -15.5 80.5c0 28.667 5 55.834 15 81.501s24 48.334 42 68.001s39.167 36 63.5 49s50.5 21.5 78.5 25.5v94h58v-94c22.667 -4 43.334 -11 62.001 -21s35.667 -24 51 -42v56
h47v-129h-61z" />
    <glyph glyph-name="sterling" unicode="&#xa3;" 
d="M418 387v-56h-202c21.333 -21.333 40.166 -43.666 56.499 -66.999s24.5 -51.333 24.5 -84c0 -48.667 -17 -89.334 -51 -122.001h85c21.333 0 43.166 1.66699 65.499 5s42.833 11.666 61.5 24.999c17.333 13.333 30.666 30 39.999 50s14 41 14 63
c0 14 -2.33301 26.667 -7 38h65c2.66699 -7.33301 4.33398 -14.333 5.00098 -21s1 -13.667 1 -21c0 -29.333 -5.5 -56.5 -16.5 -81.5s-27.833 -47.167 -50.5 -66.5c-24.667 -21.333 -51 -34.833 -79 -40.5s-58 -8.5 -90 -8.5h-292v58h115
c21.333 11.333 36.833 28.166 46.5 50.499s14.5 45.166 14.5 68.499c0 16.667 -2.66699 32 -8 46s-12.5 27.333 -21.5 40s-19 24.5 -30 35.5l-33.5 32.5h-127v56h88c-13.333 18 -23.166 36.167 -29.499 54.5s-9.5 38.833 -9.5 61.5c0 30.667 6.33301 59.834 19 87.501
s29.834 51.834 51.501 72.501s46.5 37 74.5 49s57.333 18 88 18c37.333 0 69.5 -7.16699 96.5 -21.5s51.5 -35.833 73.5 -64.5v69h65v-173h-65c-2.66699 18.667 -9 35.834 -19 51.501s-22.167 29.167 -36.5 40.5s-30.5 20 -48.5 26s-36.333 9 -55 9
c-24 0 -46.333 -4.33301 -67 -13s-38.667 -20.5 -54 -35.5s-27.333 -33 -36 -54s-13 -43.5 -13 -67.5c0 -42 15.667 -78.667 47 -110h244z" />
    <glyph glyph-name="currency" unicode="&#xa4;" 
d="M290 515c-24 0 -46.667 -4.49902 -68 -13.499s-40 -21.5 -56 -37.5s-28.5 -34.5 -37.5 -55.5s-13.5 -43.5 -13.5 -67.5s4.5 -46.5 13.5 -67.5s21.333 -39.5 37 -55.5s34 -28.667 55 -38s43.5 -14 67.5 -14s46.667 4.5 68 13.5s40 21.167 56 36.5s28.667 33.666 38 54.999
s14 44 14 68s-4.5 46.667 -13.5 68s-21.333 40 -37 56s-34.167 28.667 -55.5 38s-44 14 -68 14zM105 196.001c-16.667 20 -29.167 42.499 -37.5 67.499s-12.5 50.167 -12.5 75.5s4.16699 50.833 12.5 76.5s20.833 48.5 37.5 68.5l-55 53l40 41l54 -54
c42.667 33.333 91 50 145 50c26 0 51.5 -4.16699 76.5 -12.5s47.5 -20.833 67.5 -37.5l54 54l40 -41l-53 -53c17.333 -21.333 29.833 -43.833 37.5 -67.5s11.5 -49.5 11.5 -77.5s-4.16699 -53.333 -12.5 -76s-20.5 -45 -36.5 -67l53 -54l-41 -39l-53 53
c-20 -16 -42.333 -28.5 -67 -37.5s-49.667 -13.5 -75 -13.5c-28.667 0 -54.667 4.33301 -78 13s-46.333 21.334 -69 38.001l-53 -53l-41 39z" />
    <glyph glyph-name="yen" unicode="&#xa5;" 
d="M189 0v62h77v174l-17 36h-200v45h181l-24 56h-157v44h136l-103 235h-73v62h212v-62h-76l151 -345l141 345h-77v62h211v-62h-71l-96 -235h136v-44h-156l-24 -56h180v-45h-199l-14 -36v-174h77v-62h-215z" />
    <glyph glyph-name="brokenbar" unicode="&#xa6;" horiz-adv-x="660" 
d="M356 175v-350h-62v350h62zM356 675v-350h-62v350h62z" />
    <glyph glyph-name="section" unicode="&#xa7;" horiz-adv-x="440" 
d="M216 196c16 0 31.001 2.33008 45.001 6.99707s26.167 11.334 36.5 20.001s18.666 19.5 24.999 32.5s9.5 27.833 9.5 44.5c0 13.333 -3.33301 26 -10 38s-15.167 22.5 -25.5 31.5s-22.166 16 -35.499 21s-26.333 7.5 -39 7.5c-14 0 -28.167 -2.16699 -42.5 -6.5
s-27 -10.833 -38 -19.5s-20 -19 -27 -31s-10.5 -26 -10.5 -42c0 -15.333 3.16699 -29.166 9.5 -41.499s14.666 -23.166 24.999 -32.499s22.333 -16.5 36 -21.5s27.5 -7.5 41.5 -7.5zM89.001 37.9971c-1.33301 -19.333 1.16895 -35.835 7.50195 -49.502
s15.333 -25.167 27 -34.5s25.334 -16.166 41.001 -20.499s32.167 -6.5 49.5 -6.5c16 0 31.167 2.33301 45.5 7s27 11.334 38 20.001s19.833 19.5 26.5 32.5s10 28.167 10 45.5c0 15.333 -3.83301 29.833 -11.5 43.5s-17.834 25.167 -30.501 34.5
c-13.333 9.33301 -26.833 15.666 -40.5 18.999s-28.167 6.66602 -43.5 9.99902c-20 4 -39.667 10 -59 18s-36.5 18.167 -51.5 30.5s-27.167 27.166 -36.5 44.499s-14 38 -14 62c0 38 11 69.667 33 95s51 42.333 87 51c-28.667 11.333 -53 27.5 -73 48.5s-30 48.167 -30 81.5
c0 21.333 4.16699 40.833 12.5 58.5s19.666 32.834 33.999 45.501s31 22.5 50 29.5s38.833 10.5 59.5 10.5c19.333 0 38.833 -2.66699 58.5 -8s37.5 -13.5 53.5 -24.5s29 -24.667 39 -41s15 -35.5 15 -57.5l-59 2c0 12.667 -3.16699 23.834 -9.5 33.501
s-14.5 17.5 -24.5 23.5s-21 10.5 -33 13.5s-23.667 4.5 -35 4.5c-28 0 -51.833 -8.83301 -71.5 -26.5s-29.5 -40.834 -29.5 -69.501c0 -16 3.66699 -29.667 11 -41s16.666 -21.333 27.999 -30s23.666 -15.834 36.999 -21.501s26.333 -10.5 39 -14.5
c17.333 -5.33301 33.333 -10.666 48 -15.999s29.334 -13.666 44.001 -24.999c18.667 -14.667 33.5 -32.334 44.5 -53.001s16.5 -43 16.5 -67c0 -32 -9.5 -60 -28.5 -84s-43.5 -41.333 -73.5 -52c30 -9.33301 54.5 -25.666 73.5 -48.999s28.5 -51.333 28.5 -84
c0 -25.333 -5 -47.833 -15 -67.5s-23.167 -36.167 -39.5 -49.5s-35.333 -23.5 -57 -30.5s-44.5 -10.5 -68.5 -10.5c-23.333 0 -46 3.5 -68 10.5s-41.667 17.333 -59 31s-31.333 30.334 -42 50.001s-16 42.167 -16 67.5v12z" />
    <glyph glyph-name="dieresis" unicode="&#xa8;" horiz-adv-x="340" 
d="M141 627h-69v125h69v-125zM268 627h-69v125h69v-125z" />
    <glyph glyph-name="copyright" unicode="&#xa9;" horiz-adv-x="820" 
d="M611 265c-7.33301 -21.333 -17.835 -39.999 -31.502 -55.999s-29.5 -29.167 -47.5 -39.5s-37.5 -18 -58.5 -23s-41.833 -7.5 -62.5 -7.5c-32 0 -60.833 5.33301 -86.5 16s-47.5 25.667 -65.5 45s-32 42.333 -42 69s-15 56 -15 88c0 32.667 5.5 63 16.5 91
s26.167 52.167 45.5 72.5s42.666 36.166 69.999 47.499s57.333 17 90 17c19.333 0 39 -2.5 59 -7.5s38.833 -12.5 56.5 -22.5s32.834 -22.667 45.501 -38s21.334 -33.333 26.001 -54l-68 -16c-5.33301 32 -19 56 -41 72s-49 24 -81 24
c-25.333 0 -47.666 -5.16699 -66.999 -15.5s-35.333 -24 -48 -41s-22.167 -36.5 -28.5 -58.5s-9.5 -44.667 -9.5 -68c0 -24 3 -46.667 9 -68s15.333 -40 28 -56s28.5 -28.833 47.5 -38.5s41.167 -14.5 66.5 -14.5c33.333 0 61 8.83301 83 26.5s38.333 42.5 49 74.5z
M410.998 38.001c43.333 -0.666992 84.3359 7.33496 123.003 24.002s72.334 39.5 101.001 68.5s51.334 63.167 68.001 102.5s25 81 25 125c0 45.333 -8.33301 87.666 -25 126.999s-39.334 73.666 -68.001 102.999s-62.334 52.5 -101.001 69.5s-80.334 25.5 -125.001 25.5
c-43.333 0 -84.333 -8.5 -123 -25.5s-72.334 -40.167 -101.001 -69.5s-51.334 -63.5 -68.001 -102.5s-25 -80.5 -25 -124.5c0 -44.667 8.33301 -86.667 25 -126s39.5 -73.833 68.5 -103.5s62.833 -53 101.5 -70s80 -25.5 124 -25.5v2zM407.001 -13.9971
c-50.667 0 -98.165 9.83398 -142.498 29.501s-83 46.5 -116 80.5s-59 73.667 -78 119s-28.5 93.666 -28.5 144.999s9.66699 99.666 29 144.999s45.666 84.833 78.999 118.5s72.333 60.334 117 80.001s92.667 29.5 144 29.5c50 0 97.333 -9.66699 142 -29
s83.667 -45.833 117 -79.5s59.666 -73 78.999 -118s29 -92.833 29 -143.5c0 -52.667 -9.5 -102 -28.5 -148s-45.333 -86 -79 -120s-73 -60.667 -118 -80s-93.5 -29 -145.5 -29z" />
    <glyph glyph-name="ordfeminine" unicode="&#xaa;" horiz-adv-x="420" 
d="M180 446c16.667 0 32.5 3.16797 47.5 9.50098s27.833 15 38.5 26s19.167 23.833 25.5 38.5s9.5 30.667 9.5 48c0 16.667 -3.16699 32.167 -9.5 46.5s-15 27 -26 38s-23.667 19.667 -38 26s-29.833 9.5 -46.5 9.5s-32.167 -3.16699 -46.5 -9.5s-27 -15 -38 -26
s-19.667 -23.833 -26 -38.5s-9.5 -30.334 -9.5 -47.001c0 -16 3.16699 -31.333 9.5 -46s14.833 -27.5 25.5 -38.5s23.167 -19.833 37.5 -26.5s29.833 -10 46.5 -10zM300 466.001c-13.333 -21.333 -31.0029 -37.499 -53.0029 -48.499s-45 -16.5 -69 -16.5
c-23.333 0 -47.166 6.5 -71.499 19.5s-43.166 28.167 -56.499 45.5c-15.333 20 -25.166 38.167 -29.499 54.5s-6.5 32.166 -6.5 47.499c0 18 2.66699 35.833 8 53.5s14 33.167 26 46.5c21.333 23.333 41.5 40 60.5 50s41.833 15 68.5 15c52.667 0 93.667 -21.667 123 -65v57
h98v-44h-52v-229h52v-43h-98v57z" />
    <glyph glyph-name="guillemotleft" unicode="&#xab;" horiz-adv-x="320" 
d="M163 241v39l108 161l15 -58l-78 -124l78 -123l-15 -53zM36 241v40l115 171l15 -56l-85 -137l85 -136l-15 -54z" />
    <glyph glyph-name="logicalnot" unicode="&#xac;" horiz-adv-x="660" 
d="M586 402h-582v61h642v-308h-60v247z" />
    <glyph glyph-name="registered" unicode="&#xae;" horiz-adv-x="820" 
d="M437 391c14 0 27.834 0.834961 41.501 2.50195s26.167 5.16699 37.5 10.5s20.5 13.166 27.5 23.499s10.5 24.166 10.5 41.499c0 16 -3.33301 28.833 -10 38.5s-15.334 17 -26.001 22s-22.5 8.16699 -35.5 9.5s-25.5 2 -37.5 2h-123v-150h115zM609.001 142.002h-71.999
l-119 201h-96v-201h-62v445h200c17.333 0 35.166 -1 53.499 -3s35.5 -8 51.5 -18c18.667 -10.667 32 -25 40 -43s12 -37.333 12 -58c0 -42 -12.5 -72.5 -37.5 -91.5s-57.167 -29.167 -96.5 -30.5zM414.002 38.002c44 -0.666992 85.1699 7.66699 123.503 25
s71.666 40.666 99.999 69.999s50.833 63.666 67.5 102.999s25 81 25 125c0 44.667 -8.5 86.667 -25.5 126s-40 73.5 -69 102.5s-63 51.833 -102 68.5s-80.5 25 -124.5 25c-43.333 0 -84.333 -8.5 -123 -25.5s-72.334 -40.167 -101.001 -69.5s-51.334 -63.5 -68.001 -102.5
s-25 -80.5 -25 -124.5c0 -45.333 8.33301 -87.666 25 -126.999s39.5 -73.666 68.5 -102.999s63.167 -52.5 102.5 -69.5s81.333 -25.5 126 -25.5v2zM409.005 -13.9971c-51.333 0 -99.1689 10 -143.502 30s-83.166 47 -116.499 81s-59.5 73.667 -78.5 119
s-28.5 93.666 -28.5 144.999c0 52 9.83301 100.5 29.5 145.5s46.167 84.333 79.5 118s72.5 60.167 117.5 79.5s92.833 29 143.5 29s98.5 -9.83301 143.5 -29.5s84 -46.5 117 -80.5s59.167 -73.667 78.5 -119s29 -93.666 29 -144.999c0 -52 -9.83301 -100.667 -29.5 -146
s-46.167 -84.833 -79.5 -118.5s-72.666 -60.167 -117.999 -79.5s-93.333 -29 -144 -29z" />
    <glyph glyph-name="macron" unicode="&#xaf;" horiz-adv-x="460" 
d="M391 663h-320v55h320v-55z" />
    <glyph glyph-name="macron" unicode="&#x2c9;" horiz-adv-x="460" 
d="M391 663h-320v55h320v-55z" />
    <glyph glyph-name="degree" unicode="&#xb0;" horiz-adv-x="400" 
d="M310 583c0 14.667 -3 28.667 -9 42s-14 25 -24 35s-21.667 18 -35 24s-27.666 9 -42.999 9c-14.667 0 -28.667 -3 -42 -9s-25 -14 -35 -24s-17.833 -21.667 -23.5 -35s-8.5 -27.333 -8.5 -42c0 -15.333 2.83301 -29.666 8.5 -42.999s13.5 -25 23.5 -35
s21.667 -17.833 35 -23.5s27.666 -8.5 42.999 -8.5c14.667 0 28.667 2.83301 42 8.5s25 13.5 35 23.5s18 21.667 24 35s9 27.666 9 42.999zM350 583c0 -20.667 -4.00195 -40.167 -12.002 -58.5s-18.667 -34.166 -32 -47.499s-29.166 -24 -47.499 -32s-37.833 -12 -58.5 -12
s-40.167 4 -58.5 12s-34.166 18.667 -47.499 32s-24 29.166 -32 47.499s-12 37.833 -12 58.5s3.83301 40.167 11.5 58.5s18.334 34.166 32.001 47.499s29.667 24 48 32s37.833 12 58.5 12s40.167 -4 58.5 -12s34.166 -18.667 47.499 -32s24 -29.166 32 -47.499
s12 -37.833 12 -58.5z" />
    <glyph glyph-name="plusminus" unicode="&#xb1;" horiz-adv-x="660" 
d="M584 165v-61h-508v61h508zM299 449v162h62v-162h223v-61h-223v-162h-62v162h-223v61h223z" />
    <glyph glyph-name="twosuperior" unicode="&#xb2;" horiz-adv-x="348" 
d="M320 397l0.00195312 -104.002h-295v37l196 177c14.667 13.333 27.667 26.833 39 40.5s17 30.5 17 50.5c0 26.667 -9.83301 49 -29.5 67s-43.834 27 -72.501 27c-33.333 0 -58.666 -10.167 -75.999 -30.5s-26 -44.166 -26 -71.499h-45c0 20 3.66699 38.667 11 56
s17.666 32.5 30.999 45.5s29.166 23.167 47.499 30.5s38.5 11 60.5 11c19.333 0 37.833 -3.33301 55.5 -10s33 -16 46 -28s23.333 -26.333 31 -43s11.5 -35 11.5 -55c0 -27.333 -7.5 -50.166 -22.5 -68.499s-32.167 -35.833 -51.5 -52.5l-164 -146h195v67h41z" />
    <glyph glyph-name="threesuperior" unicode="&#xb3;" horiz-adv-x="348" 
d="M138 518l-0.00195312 34.002h32c9.33301 0 18.666 1.5 27.999 4.5s17.833 7.33301 25.5 13s13.834 13 18.501 22s7 19.5 7 31.5c0 21.333 -7.33301 39 -22 53s-33.667 21 -57 21c-20 0 -37.333 -6.5 -52 -19.5s-22.667 -29.167 -24 -48.5h-44
c0.666992 15.333 4.33398 29.333 11.001 42s15.667 23.667 27 33s24.166 16.5 38.499 21.5s29.5 7.5 45.5 7.5s31.167 -2.5 45.5 -7.5s27 -12.167 38 -21.5s19.833 -20.5 26.5 -33.5s10 -27.167 10 -42.5c0 -20 -5.16699 -38.333 -15.5 -55s-25.833 -28.667 -46.5 -36
c27.333 -8 49.333 -22.833 66 -44.5s25 -46.167 25 -73.5c0 -18.667 -4 -36.167 -12 -52.5s-18.833 -30.5 -32.5 -42.5s-29.5 -21.5 -47.5 -28.5s-37 -10.5 -57 -10.5c-20.667 0 -40.167 3.16699 -58.5 9.5s-34.5 15.166 -48.5 26.499s-25.167 25.166 -33.5 41.499
s-13.166 34.166 -14.499 53.499h48c2 -25.333 12.5 -47.166 31.5 -65.499s42.5 -27.5 70.5 -27.5c15.333 0 29.5 2.66699 42.5 8s24.167 12.5 33.5 21.5s16.666 19.5 21.999 31.5s8 25 8 39s-3.16699 26.833 -9.5 38.5s-14.666 21.667 -24.999 30
s-22.166 14.833 -35.499 19.5s-27 7 -41 7h-24z" />
    <glyph glyph-name="acute" unicode="&#xb4;" horiz-adv-x="420" 
d="M71 646l246 139l30 -57l-252 -131z" />
    <glyph glyph-name="mu" unicode="&#xb5;" horiz-adv-x="640" 
d="M478 88l-1.99805 -0.00195312c-16 -32 -39.333 -57 -70 -75s-65 -27 -103 -27c-25.333 0 -50.333 5 -75 15s-46.334 23.333 -65.001 40v-236h-66v658h-88v62h154v-295c0 -22.667 2.66699 -45 8 -67s14.166 -41.5 26.499 -58.5s28.666 -30.667 48.999 -41
s45.5 -15.5 75.5 -15.5c2.66699 0 8.16699 0.5 16.5 1.5s18.333 3.33301 30 7s23.834 9.33398 36.501 17.001s24.5 18.334 35.5 32.001s20 30.5 27 50.5s10.5 44.667 10.5 74v233h-88v62h154v-463h89v-62h-155v88z" />
    <glyph glyph-name="mu" unicode="&#x3bc;" horiz-adv-x="640" 
d="M478 88l-1.99805 -0.00195312c-16 -32 -39.333 -57 -70 -75s-65 -27 -103 -27c-25.333 0 -50.333 5 -75 15s-46.334 23.333 -65.001 40v-236h-66v658h-88v62h154v-295c0 -22.667 2.66699 -45 8 -67s14.166 -41.5 26.499 -58.5s28.666 -30.667 48.999 -41
s45.5 -15.5 75.5 -15.5c2.66699 0 8.16699 0.5 16.5 1.5s18.333 3.33301 30 7s23.834 9.33398 36.501 17.001s24.5 18.334 35.5 32.001s20 30.5 27 50.5s10.5 44.667 10.5 74v233h-88v62h154v-463h89v-62h-155v88z" />
    <glyph glyph-name="paragraph" unicode="&#xb6;" horiz-adv-x="500" 
d="M489 714l0.00195312 -61.998h-88v-781h-52v781h-82v-781h-53v486c-24.667 0.666992 -47.834 5.66699 -69.501 15s-40.5 21.833 -56.5 37.5s-28.667 34.167 -38 55.5s-14 44.666 -14 69.999c0 26 5.33301 50.667 16 74s25.667 43.666 45 60.999
c21.333 19.333 43.666 31.5 66.999 36.5s49 7.5 77 7.5h248z" />
    <glyph glyph-name="periodcentered" unicode="&#xb7;" horiz-adv-x="300" 
d="M185 304h-69v109h69v-109z" />
    <glyph glyph-name="periodcentered" unicode="&#x2219;" horiz-adv-x="300" 
d="M185 304h-69v109h69v-109z" />
    <glyph glyph-name="cedilla" unicode="&#xb8;" horiz-adv-x="320" 
d="M140 -89c5.33301 2.66699 9.66602 4.33398 12.999 5.00098s7.66602 1 12.999 1c22.667 0 41 -8 55 -24s21 -35 21 -57c0 -12 -2.16699 -23.333 -6.5 -34s-10.166 -20 -17.499 -28s-16.166 -14.333 -26.499 -19s-21.5 -7 -33.5 -7c-23.333 0 -42.833 6.66699 -58.5 20
s-25.167 31.666 -28.5 54.999h46c3.33301 -8.66699 8.33301 -15.667 15 -21s14.667 -8 24 -8c12 0 21.667 4 29 12s11 18 11 30s-4 21.833 -12 29.5s-18 11.5 -30 11.5c-16 0 -28 -6 -36 -18l-38 14l39 118h47z" />
    <glyph glyph-name="onesuperior" unicode="&#xb9;" horiz-adv-x="348" 
d="M202 323h64v-37h-174v37h63v357h-93v34h140v-391z" />
    <glyph glyph-name="ordmasculine" unicode="&#xba;" horiz-adv-x="340" 
d="M179 445c16.667 0 32.5 3.16797 47.5 9.50098s28 15.166 39 26.499s19.667 24.333 26 39s9.5 30.667 9.5 48c0 16.667 -3.16699 32.5 -9.5 47.5s-15 28 -26 39s-23.833 19.667 -38.5 26s-30.334 9.5 -47.001 9.5c-17.333 0 -33.333 -3.16699 -48 -9.5
s-27.667 -15 -39 -26s-20.166 -24 -26.499 -39s-9.5 -30.833 -9.5 -47.5s3.16699 -32.5 9.5 -47.5s15 -28 26 -39s23.833 -19.833 38.5 -26.5s30.667 -10 48 -10zM179 402.001c-22.667 0 -44.001 4.33496 -64.001 13.002s-37.5 20.5 -52.5 35.5s-26.833 32.5 -35.5 52.5
s-13 41.333 -13 64s4.33301 44.167 13 64.5s20.5 38 35.5 53s32.5 26.833 52.5 35.5s41.667 13 65 13c22.667 0 43.834 -4.33301 63.501 -13s37 -20.334 52 -35.001s26.833 -31.834 35.5 -51.501s13 -40.834 13 -63.501c0 -23.333 -4.16699 -45.166 -12.5 -65.499
s-20 -38 -35 -53s-32.5 -27 -52.5 -36s-41.667 -13.5 -65 -13.5z" />
    <glyph glyph-name="guillemotright" unicode="&#xbb;" horiz-adv-x="320" 
d="M36 136l79 123l-79 124l15 58l109 -161v-39l-109 -158zM156 123l85 136l-85 137l15 56l115 -171v-40l-115 -172z" />
    <glyph glyph-name="onequarter" unicode="&#xbc;" horiz-adv-x="870" 
d="M703 378l-177 -238h177v238zM276 322v-36h-173v36h62v357h-93v35h140v-392h64zM816 105h-68v-68h62v-37h-168v37h61v68h-228v35l218 288h55v-288h68v-35zM224 0l317 714h57l-316 -714h-58z" />
    <glyph glyph-name="onehalf" unicode="&#xbd;" horiz-adv-x="870" 
d="M832 104l0.00195312 -104.002h-295v37l196 177c14.667 13.333 27.667 26.833 39 40.5s17 30.5 17 50.5c0 26.667 -9.83301 49 -29.5 67s-43.834 27 -72.501 27c-33.333 0 -58.666 -10.167 -75.999 -30.5s-26 -44.166 -26 -71.499h-45c0 20 3.66699 38.667 11 56
s17.666 32.5 30.999 45.5s29.166 23.167 47.499 30.5s38.5 11 60.5 11c19.333 0 37.833 -3.33301 55.5 -10s33 -16 46 -28s23.333 -26.333 31 -43s11.5 -35 11.5 -55c0 -27.333 -7.5 -50.166 -22.5 -68.499s-32.167 -35.833 -51.5 -52.5l-164 -146h195v67h41z
M202.002 322.998h64v-37h-174v37h63v357h-93v34h140v-391zM237.002 -0.00195312l317 714h57l-316 -714h-58z" />
    <glyph glyph-name="threequarters" unicode="&#xbe;" horiz-adv-x="870" 
d="M148 518l-0.00195312 34.002h32c9.33301 0 18.666 1.5 27.999 4.5s17.833 7.33301 25.5 13s13.834 13 18.501 22s7 19.5 7 31.5c0 21.333 -7.33301 39 -22 53s-33.667 21 -57 21c-20 0 -37.333 -6.5 -52 -19.5s-22.667 -29.167 -24 -48.5h-44
c0.666992 15.333 4.33398 29.333 11.001 42s15.667 23.667 27 33s24.166 16.5 38.499 21.5s29.5 7.5 45.5 7.5s31.167 -2.5 45.5 -7.5s27 -12.167 38 -21.5s19.833 -20.5 26.5 -33.5s10 -27.167 10 -42.5c0 -20 -5.16699 -38.333 -15.5 -55s-25.833 -28.667 -46.5 -36
c27.333 -8 49.333 -22.833 66 -44.5s25 -46.167 25 -73.5c0 -18.667 -4 -36.167 -12 -52.5s-18.833 -30.5 -32.5 -42.5s-29.5 -21.5 -47.5 -28.5s-37 -10.5 -57 -10.5c-20.667 0 -40.167 3.16699 -58.5 9.5s-34.5 15.166 -48.5 26.499s-25.167 25.166 -33.5 41.499
s-13.166 34.166 -14.499 53.499h48c2 -25.333 12.5 -47.166 31.5 -65.499s42.5 -27.5 70.5 -27.5c15.333 0 29.5 2.66699 42.5 8s24.167 12.5 33.5 21.5s16.666 19.5 21.999 31.5s8 25 8 39s-3.16699 26.833 -9.5 38.5s-14.666 21.667 -24.999 30
s-22.166 14.833 -35.499 19.5s-27 7 -41 7h-24zM270.998 0.00195312l317 714h57l-316 -714h-58zM742.998 377.002l-177 -237h177v237zM855.998 105.002h-68v-68h62v-37h-168v37h61v68h-228v35l218 288h55v-288h68v-35z" />
    <glyph glyph-name="questiondown" unicode="&#xbf;" horiz-adv-x="520" 
d="M289 345c0 -22.667 -2.33105 -43.3389 -6.99805 -62.0059s-11.5 -36 -20.5 -52s-19.833 -31.167 -32.5 -45.5s-27 -28.833 -43 -43.5c-11.333 -10 -21.666 -19.667 -30.999 -29s-17.5 -19.166 -24.5 -29.499s-12.5 -21.666 -16.5 -33.999s-6 -26.5 -6 -42.5
c0 -21.333 4 -41.166 12 -59.499s19 -34.166 33 -47.499s30.167 -24 48.5 -32s38.166 -12 59.499 -12s41.166 4.16699 59.499 12.5s34.333 19.666 48 33.999s24.334 30.833 32.001 49.5s11.5 38.334 11.5 59.001h70c0 -30.667 -5.66699 -59.667 -17 -87
s-27 -51.166 -47 -71.499s-43.667 -36.5 -71 -48.5s-56.333 -18 -87 -18s-59.5 5.66699 -86.5 17s-50.667 27 -71 47s-36.5 43.333 -48.5 70s-18 55.334 -18 86.001c0 21.333 2.33301 39.833 7 55.5s11.167 30.167 19.5 43.5s18.5 26 30.5 38s25.333 24.667 40 38
c25.333 23.333 45.666 47.5 60.999 72.5s23.666 55.5 24.999 91.5h70zM219.002 524.995h70v-109h-70v109z" />
    <glyph glyph-name="Agrave" unicode="&#xc0;" horiz-adv-x="820" 
d="M518 784l-247 134l28 58l244 -142zM412 633l-146 -344h289zM554 0v66h93l-71 164h-331l-73 -164h90v-66h-255v66h89l259 582h-95v66h187l280 -648h89v-66h-262z" />
    <glyph glyph-name="Aacute" unicode="&#xc1;" horiz-adv-x="820" 
d="M271 835l246 139l30 -57l-252 -131zM412 633l-146 -344h289zM554 0v66h93l-71 164h-331l-73 -164h90v-66h-255v66h89l259 582h-95v66h187l280 -648h89v-66h-262z" />
    <glyph glyph-name="Acircumflex" unicode="&#xc2;" horiz-adv-x="820" 
d="M520 806l-109 82l-107 -82h-83l172 138h39l174 -138h-86zM412 633l-146 -344h289zM554 0v66h93l-71 164h-331l-73 -164h90v-66h-255v66h89l259 582h-95v66h187l280 -648h89v-66h-262z" />
    <glyph glyph-name="Atilde" unicode="&#xc3;" horiz-adv-x="820" 
d="M571 880c-13.333 -14 -28.333 -25.1641 -45 -33.4971s-34.667 -12.5 -54 -12.5c-13.333 0 -25.333 1.83301 -36 5.5s-20.667 7.66699 -30 12s-18.5 8.33301 -27.5 12s-18.167 5.5 -27.5 5.5c-12 0 -23 -2.83301 -33 -8.5s-19 -12.834 -27 -21.501l-39 49
c10 11.333 23 20.666 39 27.999s31.667 11 47 11c12 0 23 -1.83301 33 -5.5s19.667 -7.5 29 -11.5c10 -4.66699 20 -8.83398 30 -12.501s21 -5.5 33 -5.5c30 0 53.667 11 71 33zM412 633.003l-146 -344h289zM554 0.00292969v66h93l-71 164h-331l-73 -164h90v-66h-255v66h89
l259 582h-95v66h187l280 -648h89v-66h-262z" />
    <glyph glyph-name="Adieresis" unicode="&#xc4;" horiz-adv-x="820" 
d="M381 816h-69v125h69v-125zM508 816h-69v125h69v-125zM412 633l-146 -344h289zM554 0v66h93l-71 164h-331l-73 -164h90v-66h-255v66h89l259 582h-95v66h187l280 -648h89v-66h-262z" />
    <glyph glyph-name="Aring" unicode="&#xc5;" horiz-adv-x="820" 
d="M409 814c17.333 0 31.834 6.16699 43.501 18.5s17.5 27.166 17.5 44.499s-6.16699 31.833 -18.5 43.5s-26.833 17.5 -43.5 17.5c-18 0 -32.833 -6.16699 -44.5 -18.5s-17.5 -27.166 -17.5 -44.499s6.16699 -31.833 18.5 -43.5s27.166 -17.5 44.499 -17.5zM409.001 770
c-15.333 0 -29.501 2.83496 -42.501 8.50195s-24.167 13.167 -33.5 22.5s-16.833 20.5 -22.5 33.5s-8.5 27.167 -8.5 42.5c0 14.667 2.83301 28.334 8.5 41.001s13.334 23.834 23.001 33.501s21 17.167 34 22.5s26.833 8 41.5 8s28.334 -2.83301 41.001 -8.5
s23.667 -13.334 33 -23.001s16.833 -21 22.5 -34s8.5 -26.5 8.5 -40.5c0 -14.667 -2.83301 -28.334 -8.5 -41.001s-13.167 -23.834 -22.5 -33.501s-20.333 -17.334 -33 -23.001s-26.334 -8.5 -41.001 -8.5zM412 633.002l-146 -344h289zM554 0.00195312v66h93l-71 164h-331
l-73 -164h90v-66h-255v66h89l259 582h-95v66h187l280 -648h89v-66h-262z" />
    <glyph glyph-name="AE" unicode="&#xc6;" horiz-adv-x="1000" 
d="M558 627l-228 -335h228v335zM968 184v-184h-501v66h91v170h-263l-124 -170h91v-66h-255v66h91l405 582h-89v66h554v-184h-72v118h-266v-258h279v-59h-279v-265h266v118h72z" />
    <glyph glyph-name="Ccedilla" unicode="&#xc7;" horiz-adv-x="740" 
d="M642 540c-13.333 20 -29.167 37.501 -47.5 52.501s-38.333 27.667 -60 38s-44.167 18 -67.5 23s-47 7.5 -71 7.5c-42 0 -81.167 -7.66699 -117.5 -23s-68.166 -36.5 -95.499 -63.5s-48.833 -58.5 -64.5 -94.5s-23.5 -75 -23.5 -117c0 -41.333 7.66699 -80.5 23 -117.5
s36.333 -69.333 63 -97s58.167 -49.667 94.5 -66s75.833 -24.5 118.5 -24.5c50 0 96.833 11.167 140.5 33.5s80.167 54.166 109.5 95.499h80c-15.333 -31.333 -34.5 -59.333 -57.5 -84s-48.833 -45.667 -77.5 -63s-59.5 -30.666 -92.5 -39.999s-66.5 -14 -100.5 -14h-9
c-2.66699 0 -5.33398 0.333008 -8.00098 1l-25 -76c5.33301 2.66699 9.66602 4.33398 12.999 5.00098s7.66602 1 12.999 1c22.667 0 41 -8 55 -24s21 -35 21 -57c0 -12 -2.16699 -23.333 -6.5 -34s-10.166 -20 -17.499 -28s-16.166 -14.333 -26.499 -19s-21.5 -7 -33.5 -7
c-23.333 0 -42.833 6.66699 -58.5 20s-25.167 31.666 -28.5 54.999h46c3.33301 -8.66699 8.33301 -15.667 15 -21s14.667 -8 24 -8c12 0 21.667 4 29 12s11 18 11 30s-4 21.833 -12 29.5s-18 11.5 -30 11.5c-16 0 -28 -6 -36 -18l-38 14l40 120
c-36 5.33301 -71.667 16.666 -107 33.999s-67 40 -95 68c-36.667 36 -64 77 -82 123s-27 94.333 -27 145c0 51.333 9.83301 99.5 29.5 144.5s47.167 85.833 82.5 122.5c32 32.667 70.5 58 115.5 76s93.167 27 144.5 27c48 0 93.333 -8.5 136 -25.5s79.667 -42.833 111 -77.5
v84h66v-174h-66z" />
    <glyph glyph-name="Egrave" unicode="&#xc8;" horiz-adv-x="560" 
d="M388 784l-247 134l28 58l244 -142zM527 184v-184h-503v66h91v582h-91v66h503v-184h-72v118h-268v-258h276v-59h-276v-265h268v118h72z" />
    <glyph glyph-name="Eacute" unicode="&#xc9;" horiz-adv-x="560" 
d="M141 835l246 139l30 -57l-252 -131zM527 184v-184h-503v66h91v582h-91v66h503v-184h-72v118h-268v-258h276v-59h-276v-265h268v118h72z" />
    <glyph glyph-name="Ecircumflex" unicode="&#xca;" horiz-adv-x="560" 
d="M390 806l-109 82l-107 -82h-83l172 138h39l174 -138h-86zM527 184v-184h-503v66h91v582h-91v66h503v-184h-72v118h-268v-258h276v-59h-276v-265h268v118h72z" />
    <glyph glyph-name="Edieresis" unicode="&#xcb;" horiz-adv-x="560" 
d="M251 816h-69v125h69v-125zM378 816h-69v125h69v-125zM527 184v-184h-503v66h91v582h-91v66h503v-184h-72v118h-268v-258h276v-59h-276v-265h268v118h72z" />
    <glyph glyph-name="Igrave" unicode="&#xcc;" horiz-adv-x="300" 
d="M258 784l-247 134l28 58l244 -142zM187 66h91v-66h-254v66h91v582h-91v66h254v-66h-91v-582z" />
    <glyph glyph-name="Iacute" unicode="&#xcd;" horiz-adv-x="300" 
d="M11 835l246 139l30 -57l-252 -131zM187 66h91v-66h-254v66h91v582h-91v66h254v-66h-91v-582z" />
    <glyph glyph-name="Icircumflex" unicode="&#xce;" horiz-adv-x="300" 
d="M260 806l-109 82l-107 -82h-83l172 138h39l174 -138h-86zM187 66h91v-66h-254v66h91v582h-91v66h254v-66h-91v-582z" />
    <glyph glyph-name="Idieresis" unicode="&#xcf;" horiz-adv-x="300" 
d="M121 816h-69v125h69v-125zM248 816h-69v125h69v-125zM187 66h91v-66h-254v66h91v582h-91v66h254v-66h-91v-582z" />
    <glyph glyph-name="Eth" unicode="&#xd0;" horiz-adv-x="720" 
d="M187 389l163.998 -0.000976562v-56h-164v-267h140c43.333 0 82.833 5 118.5 15s68.834 31.333 99.501 64c26 28 46.5 60.667 61.5 98s22.5 75 22.5 113c0 40 -7.5 79.667 -22.5 119s-37.5 73 -67.5 101c-16 14.667 -31.833 26.834 -47.5 36.501s-32 17 -49 22
s-34.667 8.5 -53 10.5s-38.166 3 -59.499 3h-143v-259zM22.998 388.999h92.001v259h-92v66h318c50.667 0 96.334 -7 137.001 -21s79.667 -39.333 117 -76c35.333 -34.667 61.833 -74.667 79.5 -120s26.5 -92.666 26.5 -141.999c0 -47.333 -8.83301 -92.833 -26.5 -136.5
s-42.834 -82.834 -75.501 -117.501c-36.667 -38.667 -75.834 -65.167 -117.501 -79.5s-88.5 -21.5 -140.5 -21.5h-318v66h92v267h-92v56z" />
    <glyph glyph-name="Ntilde" unicode="&#xd1;" horiz-adv-x="800" 
d="M561 880c-13.333 -14 -28.333 -25.1641 -45 -33.4971s-34.667 -12.5 -54 -12.5c-13.333 0 -25.333 1.83301 -36 5.5s-20.667 7.66699 -30 12s-18.5 8.33301 -27.5 12s-18.167 5.5 -27.5 5.5c-12 0 -23 -2.83301 -33 -8.5s-19 -12.834 -27 -21.501l-39 49
c10 11.333 23 20.666 39 27.999s31.667 11 47 11c12 0 23 -1.83301 33 -5.5s19.667 -7.5 29 -11.5c10 -4.66699 20 -8.83398 30 -12.501s21 -5.5 33 -5.5c30 0 53.667 11 71 33zM688 0.00292969h-74l-427 597v-531h92v-66h-255v66h91v582h-91v66h164l428 -600v534h-91v66
h254v-66h-91v-648z" />
    <glyph glyph-name="Ograve" unicode="&#xd2;" horiz-adv-x="800" 
d="M508 784l-247 134l28 58l244 -142zM399 57c42 0 81.3301 8 117.997 24s68.834 37.833 96.501 65.5s49.334 59.834 65.001 96.501s23.5 76 23.5 118c0 40.667 -7.83301 79.334 -23.5 116.001s-37.167 68.5 -64.5 95.5s-59.333 48.5 -96 64.5s-76 24 -118 24
s-81.5 -7.83301 -118.5 -23.5s-69.333 -37 -97 -64s-49.5 -58.833 -65.5 -95.5s-24 -75.667 -24 -117c0 -42 7.83301 -81.333 23.5 -118s37.334 -68.834 65.001 -96.501s60 -49.334 97 -65.001s76.5 -23.5 118.5 -23.5v-1v0zM399.997 -14
c-52 0 -100.831 9.66895 -146.498 29.002s-85.667 45.833 -120 79.5s-61.333 73.167 -81 118.5s-29.5 94 -29.5 146s9.83301 100.667 29.5 146s46.5 85 80.5 119s74 60.667 120 80s95 29 147 29c51.333 0 99.666 -9.66699 144.999 -29s85 -45.833 119 -79.5
s60.833 -72.834 80.5 -117.501s29.5 -92.334 29.5 -143.001c0 -52 -9.66699 -101 -29 -147s-45.833 -86 -79.5 -120s-73.334 -61 -119.001 -81s-94.5 -30 -146.5 -30z" />
    <glyph glyph-name="Oacute" unicode="&#xd3;" horiz-adv-x="800" 
d="M261 835l246 139l30 -57l-252 -131zM399 57c42 0 81.3301 8 117.997 24s68.834 37.833 96.501 65.5s49.334 59.834 65.001 96.501s23.5 76 23.5 118c0 40.667 -7.83301 79.334 -23.5 116.001s-37.167 68.5 -64.5 95.5s-59.333 48.5 -96 64.5s-76 24 -118 24
s-81.5 -7.83301 -118.5 -23.5s-69.333 -37 -97 -64s-49.5 -58.833 -65.5 -95.5s-24 -75.667 -24 -117c0 -42 7.83301 -81.333 23.5 -118s37.334 -68.834 65.001 -96.501s60 -49.334 97 -65.001s76.5 -23.5 118.5 -23.5v-1v0zM399.997 -14
c-52 0 -100.831 9.66895 -146.498 29.002s-85.667 45.833 -120 79.5s-61.333 73.167 -81 118.5s-29.5 94 -29.5 146s9.83301 100.667 29.5 146s46.5 85 80.5 119s74 60.667 120 80s95 29 147 29c51.333 0 99.666 -9.66699 144.999 -29s85 -45.833 119 -79.5
s60.833 -72.834 80.5 -117.501s29.5 -92.334 29.5 -143.001c0 -52 -9.66699 -101 -29 -147s-45.833 -86 -79.5 -120s-73.334 -61 -119.001 -81s-94.5 -30 -146.5 -30z" />
    <glyph glyph-name="Ocircumflex" unicode="&#xd4;" horiz-adv-x="800" 
d="M510 806l-109 82l-107 -82h-83l172 138h39l174 -138h-86zM399 57c42 0 81.3301 8 117.997 24s68.834 37.833 96.501 65.5s49.334 59.834 65.001 96.501s23.5 76 23.5 118c0 40.667 -7.83301 79.334 -23.5 116.001s-37.167 68.5 -64.5 95.5s-59.333 48.5 -96 64.5
s-76 24 -118 24s-81.5 -7.83301 -118.5 -23.5s-69.333 -37 -97 -64s-49.5 -58.833 -65.5 -95.5s-24 -75.667 -24 -117c0 -42 7.83301 -81.333 23.5 -118s37.334 -68.834 65.001 -96.501s60 -49.334 97 -65.001s76.5 -23.5 118.5 -23.5v-1v0zM399.997 -14
c-52 0 -100.831 9.66895 -146.498 29.002s-85.667 45.833 -120 79.5s-61.333 73.167 -81 118.5s-29.5 94 -29.5 146s9.83301 100.667 29.5 146s46.5 85 80.5 119s74 60.667 120 80s95 29 147 29c51.333 0 99.666 -9.66699 144.999 -29s85 -45.833 119 -79.5
s60.833 -72.834 80.5 -117.501s29.5 -92.334 29.5 -143.001c0 -52 -9.66699 -101 -29 -147s-45.833 -86 -79.5 -120s-73.334 -61 -119.001 -81s-94.5 -30 -146.5 -30z" />
    <glyph glyph-name="Otilde" unicode="&#xd5;" horiz-adv-x="800" 
d="M561 880c-13.333 -14 -28.333 -25.1641 -45 -33.4971s-34.667 -12.5 -54 -12.5c-13.333 0 -25.333 1.83301 -36 5.5s-20.667 7.66699 -30 12s-18.5 8.33301 -27.5 12s-18.167 5.5 -27.5 5.5c-12 0 -23 -2.83301 -33 -8.5s-19 -12.834 -27 -21.501l-39 49
c10 11.333 23 20.666 39 27.999s31.667 11 47 11c12 0 23 -1.83301 33 -5.5s19.667 -7.5 29 -11.5c10 -4.66699 20 -8.83398 30 -12.501s21 -5.5 33 -5.5c30 0 53.667 11 71 33zM399 57.0029c42 0 81.3301 8 117.997 24s68.834 37.833 96.501 65.5
s49.334 59.834 65.001 96.501s23.5 76 23.5 118c0 40.667 -7.83301 79.334 -23.5 116.001s-37.167 68.5 -64.5 95.5s-59.333 48.5 -96 64.5s-76 24 -118 24s-81.5 -7.83301 -118.5 -23.5s-69.333 -37 -97 -64s-49.5 -58.833 -65.5 -95.5s-24 -75.667 -24 -117
c0 -42 7.83301 -81.333 23.5 -118s37.334 -68.834 65.001 -96.501s60 -49.334 97 -65.001s76.5 -23.5 118.5 -23.5v-1v0zM399.997 -13.9971c-52 0 -100.831 9.66895 -146.498 29.002s-85.667 45.833 -120 79.5s-61.333 73.167 -81 118.5s-29.5 94 -29.5 146
s9.83301 100.667 29.5 146s46.5 85 80.5 119s74 60.667 120 80s95 29 147 29c51.333 0 99.666 -9.66699 144.999 -29s85 -45.833 119 -79.5s60.833 -72.834 80.5 -117.501s29.5 -92.334 29.5 -143.001c0 -52 -9.66699 -101 -29 -147s-45.833 -86 -79.5 -120
s-73.334 -61 -119.001 -81s-94.5 -30 -146.5 -30z" />
    <glyph glyph-name="Odieresis" unicode="&#xd6;" horiz-adv-x="800" 
d="M371 816h-69v125h69v-125zM498 816h-69v125h69v-125zM399 57c42 0 81.3301 8 117.997 24s68.834 37.833 96.501 65.5s49.334 59.834 65.001 96.501s23.5 76 23.5 118c0 40.667 -7.83301 79.334 -23.5 116.001s-37.167 68.5 -64.5 95.5s-59.333 48.5 -96 64.5
s-76 24 -118 24s-81.5 -7.83301 -118.5 -23.5s-69.333 -37 -97 -64s-49.5 -58.833 -65.5 -95.5s-24 -75.667 -24 -117c0 -42 7.83301 -81.333 23.5 -118s37.334 -68.834 65.001 -96.501s60 -49.334 97 -65.001s76.5 -23.5 118.5 -23.5v-1v0zM399.997 -14
c-52 0 -100.831 9.66895 -146.498 29.002s-85.667 45.833 -120 79.5s-61.333 73.167 -81 118.5s-29.5 94 -29.5 146s9.83301 100.667 29.5 146s46.5 85 80.5 119s74 60.667 120 80s95 29 147 29c51.333 0 99.666 -9.66699 144.999 -29s85 -45.833 119 -79.5
s60.833 -72.834 80.5 -117.501s29.5 -92.334 29.5 -143.001c0 -52 -9.66699 -101 -29 -147s-45.833 -86 -79.5 -120s-73.334 -61 -119.001 -81s-94.5 -30 -146.5 -30z" />
    <glyph glyph-name="multiply" unicode="&#xd7;" horiz-adv-x="660" 
d="M286 358l-180 180l44 44l180 -180l180 180l44 -44l-180 -180l180 -180l-44 -44l-180 180l-180 -180l-44 44z" />
    <glyph glyph-name="Oslash" unicode="&#xd8;" horiz-adv-x="800" 
d="M569 607c-28 17.333 -54.832 30.667 -80.499 40s-55.167 14 -88.5 14c-42.667 0 -82.5 -7.83301 -119.5 -23.5s-69.333 -37.334 -97 -65.001s-49.334 -59.834 -65.001 -96.501s-23.5 -76 -23.5 -118c0 -43.333 8.16699 -82.166 24.5 -116.499s39.5 -67.166 69.5 -98.499z
M231.001 108.001c26.667 -15.333 53.001 -27.5 79.001 -36.5s54.667 -13.5 86 -13.5c42.667 0 82.667 8 120 24s69.5 37.667 96.5 65s48.333 59.5 64 96.5s23.5 76.5 23.5 118.5s-7.83301 80 -23.5 114s-37.834 66 -66.501 96zM97.002 -57.999l-43.001 35l88 107
c-79.333 74 -119 165 -119 273c0 52.667 9.83301 101.834 29.5 147.501s46.5 85.5 80.5 119.5s74 60.667 120 80s95.667 29 149 29c20 0 38.5 -1.33301 55.5 -4s33.5 -6.66699 49.5 -12s31.833 -12 47.5 -20s31.834 -17 48.501 -27l11 -6l81 99l43 -34l-81 -99
c76.667 -74.667 115 -165.667 115 -273c0 -50.667 -9.83301 -98.5 -29.5 -143.5s-46.334 -84.333 -80.001 -118s-73.167 -60.334 -118.5 -80.001s-93.666 -29.5 -144.999 -29.5c-32 0 -63.833 3.83301 -95.5 11.5s-61.5 19.167 -89.5 34.5l-31 17z" />
    <glyph glyph-name="Ugrave" unicode="&#xd9;" horiz-adv-x="700" 
d="M458 784l-247 134l28 58l244 -142zM582 237c0 -33.333 -3.66797 -64.3301 -11.001 -92.9971s-22.666 -56.334 -45.999 -83.001c-22 -24.667 -48.167 -43.334 -78.5 -56.001s-62.5 -19 -96.5 -19s-65.833 5.83301 -95.5 17.5s-56.167 30.167 -79.5 55.5
c-25.333 28 -41.5 57.167 -48.5 87.5s-10.5 63.5 -10.5 99.5v402h-91v66h249v-66h-86v-394c0 -24 1.5 -47 4.5 -69s11.5 -43.333 25.5 -64c15.333 -21.333 34.333 -37.166 57 -47.499s47.334 -15.5 74.001 -15.5c24.667 0 47.667 4.33301 69 13s39.666 22.667 54.999 42
c16.667 21.333 27 43.666 31 66.999s6 47.666 6 72.999v395h-86v66h249v-66h-91v-411z" />
    <glyph glyph-name="Uacute" unicode="&#xda;" horiz-adv-x="700" 
d="M211 835l246 139l30 -57l-252 -131zM582 237c0 -33.333 -3.66797 -64.3301 -11.001 -92.9971s-22.666 -56.334 -45.999 -83.001c-22 -24.667 -48.167 -43.334 -78.5 -56.001s-62.5 -19 -96.5 -19s-65.833 5.83301 -95.5 17.5s-56.167 30.167 -79.5 55.5
c-25.333 28 -41.5 57.167 -48.5 87.5s-10.5 63.5 -10.5 99.5v402h-91v66h249v-66h-86v-394c0 -24 1.5 -47 4.5 -69s11.5 -43.333 25.5 -64c15.333 -21.333 34.333 -37.166 57 -47.499s47.334 -15.5 74.001 -15.5c24.667 0 47.667 4.33301 69 13s39.666 22.667 54.999 42
c16.667 21.333 27 43.666 31 66.999s6 47.666 6 72.999v395h-86v66h249v-66h-91v-411z" />
    <glyph glyph-name="Ucircumflex" unicode="&#xdb;" horiz-adv-x="700" 
d="M460 806l-109 82l-107 -82h-83l172 138h39l174 -138h-86zM582 237c0 -33.333 -3.66797 -64.3301 -11.001 -92.9971s-22.666 -56.334 -45.999 -83.001c-22 -24.667 -48.167 -43.334 -78.5 -56.001s-62.5 -19 -96.5 -19s-65.833 5.83301 -95.5 17.5
s-56.167 30.167 -79.5 55.5c-25.333 28 -41.5 57.167 -48.5 87.5s-10.5 63.5 -10.5 99.5v402h-91v66h249v-66h-86v-394c0 -24 1.5 -47 4.5 -69s11.5 -43.333 25.5 -64c15.333 -21.333 34.333 -37.166 57 -47.499s47.334 -15.5 74.001 -15.5c24.667 0 47.667 4.33301 69 13
s39.666 22.667 54.999 42c16.667 21.333 27 43.666 31 66.999s6 47.666 6 72.999v395h-86v66h249v-66h-91v-411z" />
    <glyph glyph-name="Udieresis" unicode="&#xdc;" horiz-adv-x="700" 
d="M321 816h-69v125h69v-125zM448 816h-69v125h69v-125zM582 237c0 -33.333 -3.66797 -64.3301 -11.001 -92.9971s-22.666 -56.334 -45.999 -83.001c-22 -24.667 -48.167 -43.334 -78.5 -56.001s-62.5 -19 -96.5 -19s-65.833 5.83301 -95.5 17.5s-56.167 30.167 -79.5 55.5
c-25.333 28 -41.5 57.167 -48.5 87.5s-10.5 63.5 -10.5 99.5v402h-91v66h249v-66h-86v-394c0 -24 1.5 -47 4.5 -69s11.5 -43.333 25.5 -64c15.333 -21.333 34.333 -37.166 57 -47.499s47.334 -15.5 74.001 -15.5c24.667 0 47.667 4.33301 69 13s39.666 22.667 54.999 42
c16.667 21.333 27 43.666 31 66.999s6 47.666 6 72.999v395h-86v66h249v-66h-91v-411z" />
    <glyph glyph-name="Yacute" unicode="&#xdd;" horiz-adv-x="680" 
d="M201 835l246 139l30 -57l-252 -131zM381 66h91v-66h-255v66h92v174l-217 408h-85v66h249v-66h-88l177 -340l168 340h-92v66h250v-66h-85l-205 -408v-174z" />
    <glyph glyph-name="Thorn" unicode="&#xde;" 
d="M316 225c24 0 46.668 2.66602 68.001 7.99902s40 13.833 56 25.5s28.667 26.667 38 45s14 40.5 14 66.5c0 24 -4.83301 44.833 -14.5 62.5s-22.834 32.334 -39.501 44.001s-35.667 20.167 -57 25.5s-43.333 8 -66 8h-128v-285h129zM187.001 65.999l91 0.000976562v-66
h-254v66h91v582h-91v66h254v-66h-91v-72h129c33.333 0 65 -4.16699 95 -12.5s56.333 -20.833 79 -37.5s40.667 -37.834 54 -63.501s20 -55.834 20 -90.501c0 -35.333 -6.33301 -66.166 -19 -92.499s-29.834 -48.5 -51.501 -66.5s-47.167 -31.5 -76.5 -40.5
s-60.666 -13.5 -93.999 -13.5h-136v-93z" />
    <glyph glyph-name="germandbls" unicode="&#xdf;" 
d="M101 494c0 30 2.67383 57.1621 8.00684 81.4951s17.666 48.833 36.999 73.5s43.333 43.834 72 57.501s58.667 20.5 90 20.5c26.667 0 52.167 -5 76.5 -15s45.666 -23.667 63.999 -41s32.833 -37.666 43.5 -60.999s16 -48.666 16 -75.999c0 -36 -9 -68.667 -27 -98
s-44.333 -50.333 -79 -63c24.667 -3.33301 47 -10.333 67 -21s37 -24.5 51 -41.5s24.833 -36.5 32.5 -58.5s11.5 -45.333 11.5 -70c0 -28.667 -5 -55.167 -15 -79.5s-23.833 -45.166 -41.5 -62.499s-38.834 -31 -63.501 -41s-51.334 -15 -80.001 -15
c-34.667 0 -67.667 8.33301 -99 25v64c15.333 -9.33301 29.666 -16.166 42.999 -20.499s29 -6.5 47 -6.5c19.333 0 37.5 3.66699 54.5 11s31.667 17.166 44 29.499s22.166 27 29.499 44s11 35.167 11 54.5c0 21.333 -5 42 -15 62s-23 36.667 -39 50
c-18 14 -37.5 23.333 -58.5 28s-42.5 7 -64.5 7h-25l-9 -1v62c20.667 -1.33301 40.167 0.833984 58.5 6.50098s34.5 14.5 48.5 26.5s25.167 26.667 33.5 44s12.5 36.666 12.5 57.999c0 18 -3.33301 35 -10 51s-16 29.833 -28 41.5s-26 21 -42 28s-33 10.5 -51 10.5
c-21.333 0 -41.333 -5 -60 -15s-34.334 -23.667 -47.001 -41c-13.333 -19.333 -21 -38.666 -23 -57.999s-3 -40 -3 -62v-483h-159v62h88v432z" />
    <glyph glyph-name="agrave" unicode="&#xe0;" horiz-adv-x="660" 
d="M438 595l-247 134l28 58l244 -142zM292 469c-29.333 0 -56.833 -5.49902 -82.5 -16.499s-48 -26 -67 -45s-34.167 -41.333 -45.5 -67s-17 -52.834 -17 -81.501c0 -28 5.5 -54.667 16.5 -80s26 -47.5 45 -66.5s41.167 -34.167 66.5 -45.5s52.333 -17 81 -17
c30 0 57.833 5.5 83.5 16.5s48 26 67 45s34 41.333 45 67s16.5 53.167 16.5 82.5c0 28.667 -5.5 55.667 -16.5 81s-26 47.333 -45 66s-41.167 33.5 -66.5 44.5s-52.333 16.5 -81 16.5zM500 109.001c-23.333 -40 -53.333 -70.501 -90 -91.501s-78 -31.5 -124 -31.5
c-48 0 -92.5 11 -133.5 33s-73.167 52 -96.5 90c-13.333 21.333 -24 44.5 -32 69.5s-11.333 52.167 -10 81.5c0 18.667 1.33301 35.334 4 50.001s6 27.667 10 39s8.66699 21.833 14 31.5l16 29.5c10.667 18.667 24 35.667 40 51s34 28.5 54 39.5s41.167 19.333 63.5 25
s45.5 8.5 69.5 8.5c48 0 89.833 -10.667 125.5 -32s65.5 -52 89.5 -92v115h153v-62h-87v-401h87v-62h-153v109z" />
    <glyph glyph-name="aacute" unicode="&#xe1;" horiz-adv-x="660" 
d="M191 646l246 139l30 -57l-252 -131zM292 469c-29.333 0 -56.833 -5.49902 -82.5 -16.499s-48 -26 -67 -45s-34.167 -41.333 -45.5 -67s-17 -52.834 -17 -81.501c0 -28 5.5 -54.667 16.5 -80s26 -47.5 45 -66.5s41.167 -34.167 66.5 -45.5s52.333 -17 81 -17
c30 0 57.833 5.5 83.5 16.5s48 26 67 45s34 41.333 45 67s16.5 53.167 16.5 82.5c0 28.667 -5.5 55.667 -16.5 81s-26 47.333 -45 66s-41.167 33.5 -66.5 44.5s-52.333 16.5 -81 16.5zM500 109.001c-23.333 -40 -53.333 -70.501 -90 -91.501s-78 -31.5 -124 -31.5
c-48 0 -92.5 11 -133.5 33s-73.167 52 -96.5 90c-13.333 21.333 -24 44.5 -32 69.5s-11.333 52.167 -10 81.5c0 18.667 1.33301 35.334 4 50.001s6 27.667 10 39s8.66699 21.833 14 31.5l16 29.5c10.667 18.667 24 35.667 40 51s34 28.5 54 39.5s41.167 19.333 63.5 25
s45.5 8.5 69.5 8.5c48 0 89.833 -10.667 125.5 -32s65.5 -52 89.5 -92v115h153v-62h-87v-401h87v-62h-153v109z" />
    <glyph glyph-name="acircumflex" unicode="&#xe2;" horiz-adv-x="660" 
d="M440 617l-109 82l-107 -82h-83l172 138h39l174 -138h-86zM292 469c-29.333 0 -56.833 -5.49902 -82.5 -16.499s-48 -26 -67 -45s-34.167 -41.333 -45.5 -67s-17 -52.834 -17 -81.501c0 -28 5.5 -54.667 16.5 -80s26 -47.5 45 -66.5s41.167 -34.167 66.5 -45.5
s52.333 -17 81 -17c30 0 57.833 5.5 83.5 16.5s48 26 67 45s34 41.333 45 67s16.5 53.167 16.5 82.5c0 28.667 -5.5 55.667 -16.5 81s-26 47.333 -45 66s-41.167 33.5 -66.5 44.5s-52.333 16.5 -81 16.5zM500 109.001c-23.333 -40 -53.333 -70.501 -90 -91.501
s-78 -31.5 -124 -31.5c-48 0 -92.5 11 -133.5 33s-73.167 52 -96.5 90c-13.333 21.333 -24 44.5 -32 69.5s-11.333 52.167 -10 81.5c0 18.667 1.33301 35.334 4 50.001s6 27.667 10 39s8.66699 21.833 14 31.5l16 29.5c10.667 18.667 24 35.667 40 51s34 28.5 54 39.5
s41.167 19.333 63.5 25s45.5 8.5 69.5 8.5c48 0 89.833 -10.667 125.5 -32s65.5 -52 89.5 -92v115h153v-62h-87v-401h87v-62h-153v109z" />
    <glyph glyph-name="atilde" unicode="&#xe3;" horiz-adv-x="660" 
d="M491 691c-13.333 -14 -28.333 -25.1641 -45 -33.4971s-34.667 -12.5 -54 -12.5c-13.333 0 -25.333 1.83301 -36 5.5s-20.667 7.66699 -30 12s-18.5 8.33301 -27.5 12s-18.167 5.5 -27.5 5.5c-12 0 -23 -2.83301 -33 -8.5s-19 -12.834 -27 -21.501l-39 49
c10 11.333 23 20.666 39 27.999s31.667 11 47 11c12 0 23 -1.83301 33 -5.5s19.667 -7.5 29 -11.5c10 -4.66699 20 -8.83398 30 -12.501s21 -5.5 33 -5.5c30 0 53.667 11 71 33zM292 469.003c-29.333 0 -56.833 -5.49902 -82.5 -16.499s-48 -26 -67 -45
s-34.167 -41.333 -45.5 -67s-17 -52.834 -17 -81.501c0 -28 5.5 -54.667 16.5 -80s26 -47.5 45 -66.5s41.167 -34.167 66.5 -45.5s52.333 -17 81 -17c30 0 57.833 5.5 83.5 16.5s48 26 67 45s34 41.333 45 67s16.5 53.167 16.5 82.5c0 28.667 -5.5 55.667 -16.5 81
s-26 47.333 -45 66s-41.167 33.5 -66.5 44.5s-52.333 16.5 -81 16.5zM500 109.004c-23.333 -40 -53.333 -70.501 -90 -91.501s-78 -31.5 -124 -31.5c-48 0 -92.5 11 -133.5 33s-73.167 52 -96.5 90c-13.333 21.333 -24 44.5 -32 69.5s-11.333 52.167 -10 81.5
c0 18.667 1.33301 35.334 4 50.001s6 27.667 10 39s8.66699 21.833 14 31.5l16 29.5c10.667 18.667 24 35.667 40 51s34 28.5 54 39.5s41.167 19.333 63.5 25s45.5 8.5 69.5 8.5c48 0 89.833 -10.667 125.5 -32s65.5 -52 89.5 -92v115h153v-62h-87v-401h87v-62h-153v109z
" />
    <glyph glyph-name="adieresis" unicode="&#xe4;" horiz-adv-x="660" 
d="M301 627h-69v125h69v-125zM428 627h-69v125h69v-125zM292 469c-29.333 0 -56.833 -5.49902 -82.5 -16.499s-48 -26 -67 -45s-34.167 -41.333 -45.5 -67s-17 -52.834 -17 -81.501c0 -28 5.5 -54.667 16.5 -80s26 -47.5 45 -66.5s41.167 -34.167 66.5 -45.5
s52.333 -17 81 -17c30 0 57.833 5.5 83.5 16.5s48 26 67 45s34 41.333 45 67s16.5 53.167 16.5 82.5c0 28.667 -5.5 55.667 -16.5 81s-26 47.333 -45 66s-41.167 33.5 -66.5 44.5s-52.333 16.5 -81 16.5zM500 109.001c-23.333 -40 -53.333 -70.501 -90 -91.501
s-78 -31.5 -124 -31.5c-48 0 -92.5 11 -133.5 33s-73.167 52 -96.5 90c-13.333 21.333 -24 44.5 -32 69.5s-11.333 52.167 -10 81.5c0 18.667 1.33301 35.334 4 50.001s6 27.667 10 39s8.66699 21.833 14 31.5l16 29.5c10.667 18.667 24 35.667 40 51s34 28.5 54 39.5
s41.167 19.333 63.5 25s45.5 8.5 69.5 8.5c48 0 89.833 -10.667 125.5 -32s65.5 -52 89.5 -92v115h153v-62h-87v-401h87v-62h-153v109z" />
    <glyph glyph-name="aring" unicode="&#xe5;" horiz-adv-x="660" 
d="M329 625c17.333 0 31.834 6.16699 43.501 18.5s17.5 27.166 17.5 44.499s-6.16699 31.833 -18.5 43.5s-26.833 17.5 -43.5 17.5c-18 0 -32.833 -6.16699 -44.5 -18.5s-17.5 -27.166 -17.5 -44.499s6.16699 -31.833 18.5 -43.5s27.166 -17.5 44.499 -17.5zM329.001 581
c-15.333 0 -29.501 2.83496 -42.501 8.50195s-24.167 13.167 -33.5 22.5s-16.833 20.5 -22.5 33.5s-8.5 27.167 -8.5 42.5c0 14.667 2.83301 28.334 8.5 41.001s13.334 23.834 23.001 33.501s21 17.167 34 22.5s26.833 8 41.5 8s28.334 -2.83301 41.001 -8.5
s23.667 -13.334 33 -23.001s16.833 -21 22.5 -34s8.5 -26.5 8.5 -40.5c0 -14.667 -2.83301 -28.334 -8.5 -41.001s-13.167 -23.834 -22.5 -33.501s-20.333 -17.334 -33 -23.001s-26.334 -8.5 -41.001 -8.5zM292 469.002c-29.333 0 -56.833 -5.49902 -82.5 -16.499
s-48 -26 -67 -45s-34.167 -41.333 -45.5 -67s-17 -52.834 -17 -81.501c0 -28 5.5 -54.667 16.5 -80s26 -47.5 45 -66.5s41.167 -34.167 66.5 -45.5s52.333 -17 81 -17c30 0 57.833 5.5 83.5 16.5s48 26 67 45s34 41.333 45 67s16.5 53.167 16.5 82.5
c0 28.667 -5.5 55.667 -16.5 81s-26 47.333 -45 66s-41.167 33.5 -66.5 44.5s-52.333 16.5 -81 16.5zM500 109.003c-23.333 -40 -53.333 -70.501 -90 -91.501s-78 -31.5 -124 -31.5c-48 0 -92.5 11 -133.5 33s-73.167 52 -96.5 90c-13.333 21.333 -24 44.5 -32 69.5
s-11.333 52.167 -10 81.5c0 18.667 1.33301 35.334 4 50.001s6 27.667 10 39s8.66699 21.833 14 31.5l16 29.5c10.667 18.667 24 35.667 40 51s34 28.5 54 39.5s41.167 19.333 63.5 25s45.5 8.5 69.5 8.5c48 0 89.833 -10.667 125.5 -32s65.5 -52 89.5 -92v115h153v-62h-87
v-401h87v-62h-153v109z" />
    <glyph glyph-name="ae" unicode="&#xe6;" horiz-adv-x="1060" 
d="M985 293c-4 25.333 -12.165 48.665 -24.498 69.998s-28 39.833 -47 55.5s-40.167 27.834 -63.5 36.501s-48 13 -74 13c-26.667 0 -51.667 -4.16699 -75 -12.5s-44.333 -20.166 -63 -35.499s-34.334 -33.833 -47.001 -55.5s-21.334 -45.5 -26.001 -71.5h420z
M290.002 50.999c30 0 57.8311 5.50098 83.498 16.501s47.834 26 66.501 45s33.167 41.5 43.5 67.5s15.5 54 15.5 84c0 28.667 -5.5 55.5 -16.5 80.5s-26 46.667 -45 65s-41 32.666 -66 42.999s-51.833 15.5 -80.5 15.5c-28 0 -54.833 -5.33301 -80.5 -16
s-48.167 -25.167 -67.5 -43.5s-34.666 -39.833 -45.999 -64.5s-17 -51.334 -17 -80.001c0 -29.333 5.33301 -56.833 16 -82.5s25.5 -48.167 44.5 -67.5s41.333 -34.666 67 -45.999s53.167 -17 82.5 -17zM565 403c22.667 42 52.501 74.332 89.501 96.999s79.833 34 128.5 34
c54 0 100.5 -12.667 139.5 -38s68.833 -56.333 89.5 -93c12 -21.333 21.5 -43.833 28.5 -67.5s10.5 -49.5 10.5 -77.5v-18h-486c2 -27.333 9.16699 -52.5 21.5 -75.5s28 -43 47 -60s40.667 -30.167 65 -39.5s49.833 -14 76.5 -14c20 0 38.167 2 54.5 6s31.5 10 45.5 18
s27.333 18 40 30s25.334 26.333 38.001 43h76l-21 -35c-22.667 -38 -53.167 -68.667 -91.5 -92s-82.5 -35 -132.5 -35c-22.667 0 -44.834 2.83301 -66.501 8.5s-42 14 -61 25s-36.333 24.333 -52 40s-28.834 33.5 -39.501 53.5v-113h-66v119c-20 -42 -48 -74.667 -84 -98
s-78 -35 -126 -35c-50 0 -96 12.167 -138 36.5s-75 56.5 -99 96.5c-15.333 24.667 -25.5 48.167 -30.5 70.5s-7.5 44.833 -7.5 67.5c0 24.667 3.33301 50.834 10 78.501s18.667 52.5 36 74.5c30 38.667 64.333 69 103 91s79.667 33 123 33
c45.333 0 86.833 -10.833 124.5 -32.5s67.167 -52.167 88.5 -91.5v115h66v-122z" />
    <glyph glyph-name="ccedilla" unicode="&#xe7;" horiz-adv-x="560" 
d="M529 367l-61.9971 0.000976562c-19.333 31.333 -45 56 -77 74s-66.333 27 -103 27c-29.333 0 -56.5 -5.5 -81.5 -16.5s-46.833 -26 -65.5 -45s-33.334 -41.333 -44.001 -67s-16 -52.834 -16 -81.501c0 -29.333 5.5 -56.5 16.5 -81.5s26 -46.833 45 -65.5
s41.5 -33.167 67.5 -43.5s53.667 -15.5 83 -15.5c18.667 0 37.167 2.5 55.5 7.5s35.333 12.333 51 22s29.834 21.5 42.501 35.5s23 29.667 31 47h74c-10 -27.333 -23.667 -51.833 -41 -73.5s-37.333 -40.167 -60 -55.5s-47.334 -27.333 -74.001 -36s-54.334 -13 -83.001 -13
l-24 -75c5.33301 2.66699 9.66602 4.33398 12.999 5.00098s7.66602 1 12.999 1c22.667 0 41 -8 55 -24s21 -35 21 -57c0 -12 -2.16699 -23.333 -6.5 -34s-10.166 -20 -17.499 -28s-16.166 -14.333 -26.499 -19s-21.5 -7 -33.5 -7c-23.333 0 -42.833 6.66699 -58.5 20
s-25.167 31.666 -28.5 54.999h46c3.33301 -8.66699 8.33301 -15.667 15 -21s14.667 -8 24 -8c12 0 21.667 4 29 12s11 18 11 30s-4 21.833 -12 29.5s-18 11.5 -30 11.5c-16 0 -28 -6 -36 -18l-38 14l39 118c-32.667 4.66699 -63 15 -91 31s-52.167 36 -72.5 60
s-36.333 50.833 -48 80.5s-17.5 61.167 -17.5 94.5c0 38 6.83301 73.5 20.5 106.5s32.5 61.833 56.5 86.5c25.333 25.333 54.166 45.666 86.499 60.999s67.5 23 105.5 23c37.333 0 71.333 -7.16699 102 -21.5s58 -35.166 82 -62.499v75h62v-158z" />
    <glyph glyph-name="egrave" unicode="&#xe8;" 
d="M398 595l-247 134l28 58l244 -142zM497 292c-4 26.667 -12.335 51.168 -25.002 73.501s-28.667 41.5 -48 57.5s-41.166 28.5 -65.499 37.5s-49.833 13.5 -76.5 13.5c-25.333 0 -49.5 -4.83301 -72.5 -14.5s-43.667 -22.834 -62 -39.501s-33.666 -36 -45.999 -58
s-19.833 -45.333 -22.5 -70h418zM536.998 147.001c-11.333 -24.667 -25.502 -46.8301 -42.502 -66.4971s-36.5 -36.5 -58.5 -50.5s-45.667 -24.833 -71 -32.5s-51.333 -11.5 -78 -11.5c-38 0 -73.5 7 -106.5 21s-62 33.333 -87 58s-44.667 53.5 -59 86.5
s-21.5 68.167 -21.5 105.5s7 72.666 21 105.999s33 62.666 57 87.999s52.5 45.5 85.5 60.5s68.5 22.5 106.5 22.5c38.667 0 74.834 -7.16699 108.501 -21.5s63 -33.833 88 -58.5s44.5 -53.834 58.5 -87.501s21 -69.834 21 -108.501v-20h-480
c1.33301 -27.333 7.83301 -52.666 19.5 -75.999s26.834 -43.666 45.501 -60.999s40 -31 64 -41s49.667 -15 77 -15c38 0 73 8.66699 105 26s57.667 42.666 77 75.999h70z" />
    <glyph glyph-name="eacute" unicode="&#xe9;" 
d="M151 646l246 139l30 -57l-252 -131zM497 292c-4 26.667 -12.335 51.168 -25.002 73.501s-28.667 41.5 -48 57.5s-41.166 28.5 -65.499 37.5s-49.833 13.5 -76.5 13.5c-25.333 0 -49.5 -4.83301 -72.5 -14.5s-43.667 -22.834 -62 -39.501s-33.666 -36 -45.999 -58
s-19.833 -45.333 -22.5 -70h418zM536.998 147.001c-11.333 -24.667 -25.502 -46.8301 -42.502 -66.4971s-36.5 -36.5 -58.5 -50.5s-45.667 -24.833 -71 -32.5s-51.333 -11.5 -78 -11.5c-38 0 -73.5 7 -106.5 21s-62 33.333 -87 58s-44.667 53.5 -59 86.5
s-21.5 68.167 -21.5 105.5s7 72.666 21 105.999s33 62.666 57 87.999s52.5 45.5 85.5 60.5s68.5 22.5 106.5 22.5c38.667 0 74.834 -7.16699 108.501 -21.5s63 -33.833 88 -58.5s44.5 -53.834 58.5 -87.501s21 -69.834 21 -108.501v-20h-480
c1.33301 -27.333 7.83301 -52.666 19.5 -75.999s26.834 -43.666 45.501 -60.999s40 -31 64 -41s49.667 -15 77 -15c38 0 73 8.66699 105 26s57.667 42.666 77 75.999h70z" />
    <glyph glyph-name="ecircumflex" unicode="&#xea;" 
d="M400 617l-109 82l-107 -82h-83l172 138h39l174 -138h-86zM497 292c-4 26.667 -12.335 51.168 -25.002 73.501s-28.667 41.5 -48 57.5s-41.166 28.5 -65.499 37.5s-49.833 13.5 -76.5 13.5c-25.333 0 -49.5 -4.83301 -72.5 -14.5s-43.667 -22.834 -62 -39.501
s-33.666 -36 -45.999 -58s-19.833 -45.333 -22.5 -70h418zM536.998 147.001c-11.333 -24.667 -25.502 -46.8301 -42.502 -66.4971s-36.5 -36.5 -58.5 -50.5s-45.667 -24.833 -71 -32.5s-51.333 -11.5 -78 -11.5c-38 0 -73.5 7 -106.5 21s-62 33.333 -87 58
s-44.667 53.5 -59 86.5s-21.5 68.167 -21.5 105.5s7 72.666 21 105.999s33 62.666 57 87.999s52.5 45.5 85.5 60.5s68.5 22.5 106.5 22.5c38.667 0 74.834 -7.16699 108.501 -21.5s63 -33.833 88 -58.5s44.5 -53.834 58.5 -87.501s21 -69.834 21 -108.501v-20h-480
c1.33301 -27.333 7.83301 -52.666 19.5 -75.999s26.834 -43.666 45.501 -60.999s40 -31 64 -41s49.667 -15 77 -15c38 0 73 8.66699 105 26s57.667 42.666 77 75.999h70z" />
    <glyph glyph-name="edieresis" unicode="&#xeb;" 
d="M261 627h-69v125h69v-125zM388 627h-69v125h69v-125zM497 292c-4 26.667 -12.335 51.168 -25.002 73.501s-28.667 41.5 -48 57.5s-41.166 28.5 -65.499 37.5s-49.833 13.5 -76.5 13.5c-25.333 0 -49.5 -4.83301 -72.5 -14.5s-43.667 -22.834 -62 -39.501
s-33.666 -36 -45.999 -58s-19.833 -45.333 -22.5 -70h418zM536.998 147.001c-11.333 -24.667 -25.502 -46.8301 -42.502 -66.4971s-36.5 -36.5 -58.5 -50.5s-45.667 -24.833 -71 -32.5s-51.333 -11.5 -78 -11.5c-38 0 -73.5 7 -106.5 21s-62 33.333 -87 58
s-44.667 53.5 -59 86.5s-21.5 68.167 -21.5 105.5s7 72.666 21 105.999s33 62.666 57 87.999s52.5 45.5 85.5 60.5s68.5 22.5 106.5 22.5c38.667 0 74.834 -7.16699 108.501 -21.5s63 -33.833 88 -58.5s44.5 -53.834 58.5 -87.501s21 -69.834 21 -108.501v-20h-480
c1.33301 -27.333 7.83301 -52.666 19.5 -75.999s26.834 -43.666 45.501 -60.999s40 -31 64 -41s49.667 -15 77 -15c38 0 73 8.66699 105 26s57.667 42.666 77 75.999h70z" />
    <glyph glyph-name="igrave" unicode="&#xec;" horiz-adv-x="260" 
d="M238 595l-247 134l28 58l244 -142zM171 62h88v-62h-244v62h90v401h-88v62h154v-463z" />
    <glyph glyph-name="iacute" unicode="&#xed;" horiz-adv-x="260" 
d="M-9 646l246 139l30 -57l-252 -131zM171 62h88v-62h-244v62h90v401h-88v62h154v-463z" />
    <glyph glyph-name="icircumflex" unicode="&#xee;" horiz-adv-x="260" 
d="M240 617l-109 82l-107 -82h-83l172 138h39l174 -138h-86zM171 62h88v-62h-244v62h90v401h-88v62h154v-463z" />
    <glyph glyph-name="idieresis" unicode="&#xef;" horiz-adv-x="260" 
d="M101 627h-69v125h69v-125zM228 627h-69v125h69v-125zM171 62h88v-62h-244v62h90v401h-88v62h154v-463z" />
    <glyph glyph-name="eth" unicode="&#xf0;" 
d="M288 51c28.667 0 55.832 5.5 81.499 16.5s47.834 26 66.501 45s33.5 41.167 44.5 66.5s16.5 52.333 16.5 81s-5.33301 55.667 -16 81s-25.5 47.5 -44.5 66.5s-41.167 34 -66.5 45s-52.333 16.5 -81 16.5c-29.333 0 -56.666 -5.5 -81.999 -16.5s-47.5 -25.833 -66.5 -44.5
s-34 -40.667 -45 -66s-16.5 -52.333 -16.5 -81s5.33301 -55.667 16 -81s25.5 -47.5 44.5 -66.5s41.167 -34.167 66.5 -45.5s52.666 -17 81.999 -17zM133.998 546l-48 37.002l138 53c-23.333 11.333 -44.5 21 -63.5 29s-34.833 13.667 -47.5 17l74 32
c8 -2.66699 22.167 -7.83398 42.5 -15.501s43.833 -18.834 70.5 -33.501l127 49l45 -36l-119 -46c24 -17.333 48.5 -37.5 73.5 -60.5s47.5 -49.167 67.5 -78.5s36.5 -61.833 49.5 -97.5s19.5 -74.167 19.5 -115.5c0 -42 -7.16699 -81 -21.5 -117
s-33.833 -67.167 -58.5 -93.5s-53.667 -46.833 -87 -61.5s-69.333 -22 -108 -22c-38 0 -73.667 7.16699 -107 21.5s-62.5 33.833 -87.5 58.5s-44.667 53.667 -59 87s-21.5 68.666 -21.5 105.999c0 38 7.33301 73.833 22 107.5s34.5 62.834 59.5 87.501
s54.333 44.167 88 58.5s69.5 21.5 107.5 21.5c45.333 0 89.333 -17.333 132 -52c-19.333 26 -42.333 49.667 -69 71s-50.667 38.333 -72 51z" />
    <glyph glyph-name="ntilde" unicode="&#xf1;" horiz-adv-x="660" 
d="M491 691c-13.333 -14 -28.333 -25.1641 -45 -33.4971s-34.667 -12.5 -54 -12.5c-13.333 0 -25.333 1.83301 -36 5.5s-20.667 7.66699 -30 12s-18.5 8.33301 -27.5 12s-18.167 5.5 -27.5 5.5c-12 0 -23 -2.83301 -33 -8.5s-19 -12.834 -27 -21.501l-39 49
c10 11.333 23 20.666 39 27.999s31.667 11 47 11c12 0 23 -1.83301 33 -5.5s19.667 -7.5 29 -11.5c10 -4.66699 20 -8.83398 30 -12.501s21 -5.5 33 -5.5c30 0 53.667 11 71 33zM169 433.003c16.667 32.667 41.1631 57.668 73.4961 75.001s66.5 26 102.5 26
c14.667 0 30.834 -2 48.501 -6s34.834 -10.167 51.501 -18.5s32.167 -18.833 46.5 -31.5s25.833 -27.667 34.5 -45c6.66699 -13.333 13.167 -31.5 19.5 -54.5s9.5 -50.5 9.5 -82.5v-234h88v-62h-242v62h88v210c0 23.333 -1.16699 46.166 -3.5 68.499s-9.5 43.833 -21.5 64.5
c-7.33301 12 -16.166 22.167 -26.499 30.5s-21.666 15 -33.999 20s-25 8.5 -38 10.5s-25.833 3 -38.5 3c-23.333 0 -45.833 -4.83301 -67.5 -14.5s-40.167 -23.167 -55.5 -40.5c-17.333 -20 -27.5 -41.167 -30.5 -63.5s-4.5 -45.833 -4.5 -70.5v-218h88v-62h-242v62h88v401
h-88v62h154v-92z" />
    <glyph glyph-name="ograve" unicode="&#xf2;" 
d="M398 595l-247 134l28 58l244 -142zM288 51c28.667 0 55.832 5.5 81.499 16.5s47.834 26 66.501 45s33.5 41.167 44.5 66.5s16.5 52.333 16.5 81s-5.33301 55.667 -16 81s-25.5 47.5 -44.5 66.5s-41.167 34 -66.5 45s-52.333 16.5 -81 16.5
c-29.333 0 -56.666 -5.5 -81.999 -16.5s-47.5 -25.833 -66.5 -44.5s-34 -40.667 -45 -66s-16.5 -52.333 -16.5 -81s5.33301 -55.667 16 -81s25.5 -47.5 44.5 -66.5s41.167 -34.167 66.5 -45.5s52.666 -17 81.999 -17zM287.998 -14c-38 0 -73.667 7.16602 -107 21.499
s-62.5 33.833 -87.5 58.5s-44.667 53.667 -59 87s-21.5 68.666 -21.5 105.999c0 38 7.33301 73.833 22 107.5s34.5 62.834 59.5 87.501s54.333 44.167 88 58.5s69.5 21.5 107.5 21.5c37.333 0 72.5 -7.16699 105.5 -21.5s62 -33.666 87 -57.999s44.667 -53 59 -86
s21.5 -67.833 21.5 -104.5c0 -38 -7.16699 -74 -21.5 -108s-33.833 -63.5 -58.5 -88.5s-53.667 -44.833 -87 -59.5s-69.333 -22 -108 -22z" />
    <glyph glyph-name="oacute" unicode="&#xf3;" 
d="M151 646l246 139l30 -57l-252 -131zM288 51c28.667 0 55.832 5.5 81.499 16.5s47.834 26 66.501 45s33.5 41.167 44.5 66.5s16.5 52.333 16.5 81s-5.33301 55.667 -16 81s-25.5 47.5 -44.5 66.5s-41.167 34 -66.5 45s-52.333 16.5 -81 16.5
c-29.333 0 -56.666 -5.5 -81.999 -16.5s-47.5 -25.833 -66.5 -44.5s-34 -40.667 -45 -66s-16.5 -52.333 -16.5 -81s5.33301 -55.667 16 -81s25.5 -47.5 44.5 -66.5s41.167 -34.167 66.5 -45.5s52.666 -17 81.999 -17zM287.998 -14c-38 0 -73.667 7.16602 -107 21.499
s-62.5 33.833 -87.5 58.5s-44.667 53.667 -59 87s-21.5 68.666 -21.5 105.999c0 38 7.33301 73.833 22 107.5s34.5 62.834 59.5 87.501s54.333 44.167 88 58.5s69.5 21.5 107.5 21.5c37.333 0 72.5 -7.16699 105.5 -21.5s62 -33.666 87 -57.999s44.667 -53 59 -86
s21.5 -67.833 21.5 -104.5c0 -38 -7.16699 -74 -21.5 -108s-33.833 -63.5 -58.5 -88.5s-53.667 -44.833 -87 -59.5s-69.333 -22 -108 -22z" />
    <glyph glyph-name="ocircumflex" unicode="&#xf4;" 
d="M400 617l-109 82l-107 -82h-83l172 138h39l174 -138h-86zM288 51c28.667 0 55.832 5.5 81.499 16.5s47.834 26 66.501 45s33.5 41.167 44.5 66.5s16.5 52.333 16.5 81s-5.33301 55.667 -16 81s-25.5 47.5 -44.5 66.5s-41.167 34 -66.5 45s-52.333 16.5 -81 16.5
c-29.333 0 -56.666 -5.5 -81.999 -16.5s-47.5 -25.833 -66.5 -44.5s-34 -40.667 -45 -66s-16.5 -52.333 -16.5 -81s5.33301 -55.667 16 -81s25.5 -47.5 44.5 -66.5s41.167 -34.167 66.5 -45.5s52.666 -17 81.999 -17zM287.998 -14c-38 0 -73.667 7.16602 -107 21.499
s-62.5 33.833 -87.5 58.5s-44.667 53.667 -59 87s-21.5 68.666 -21.5 105.999c0 38 7.33301 73.833 22 107.5s34.5 62.834 59.5 87.501s54.333 44.167 88 58.5s69.5 21.5 107.5 21.5c37.333 0 72.5 -7.16699 105.5 -21.5s62 -33.666 87 -57.999s44.667 -53 59 -86
s21.5 -67.833 21.5 -104.5c0 -38 -7.16699 -74 -21.5 -108s-33.833 -63.5 -58.5 -88.5s-53.667 -44.833 -87 -59.5s-69.333 -22 -108 -22z" />
    <glyph glyph-name="otilde" unicode="&#xf5;" 
d="M451 691c-13.333 -14 -28.333 -25.1641 -45 -33.4971s-34.667 -12.5 -54 -12.5c-13.333 0 -25.333 1.83301 -36 5.5s-20.667 7.66699 -30 12s-18.5 8.33301 -27.5 12s-18.167 5.5 -27.5 5.5c-12 0 -23 -2.83301 -33 -8.5s-19 -12.834 -27 -21.501l-39 49
c10 11.333 23 20.666 39 27.999s31.667 11 47 11c12 0 23 -1.83301 33 -5.5s19.667 -7.5 29 -11.5c10 -4.66699 20 -8.83398 30 -12.501s21 -5.5 33 -5.5c30 0 53.667 11 71 33zM288 51.0029c28.667 0 55.832 5.5 81.499 16.5s47.834 26 66.501 45s33.5 41.167 44.5 66.5
s16.5 52.333 16.5 81s-5.33301 55.667 -16 81s-25.5 47.5 -44.5 66.5s-41.167 34 -66.5 45s-52.333 16.5 -81 16.5c-29.333 0 -56.666 -5.5 -81.999 -16.5s-47.5 -25.833 -66.5 -44.5s-34 -40.667 -45 -66s-16.5 -52.333 -16.5 -81s5.33301 -55.667 16 -81
s25.5 -47.5 44.5 -66.5s41.167 -34.167 66.5 -45.5s52.666 -17 81.999 -17zM287.998 -13.9971c-38 0 -73.667 7.16602 -107 21.499s-62.5 33.833 -87.5 58.5s-44.667 53.667 -59 87s-21.5 68.666 -21.5 105.999c0 38 7.33301 73.833 22 107.5s34.5 62.834 59.5 87.501
s54.333 44.167 88 58.5s69.5 21.5 107.5 21.5c37.333 0 72.5 -7.16699 105.5 -21.5s62 -33.666 87 -57.999s44.667 -53 59 -86s21.5 -67.833 21.5 -104.5c0 -38 -7.16699 -74 -21.5 -108s-33.833 -63.5 -58.5 -88.5s-53.667 -44.833 -87 -59.5s-69.333 -22 -108 -22z" />
    <glyph glyph-name="odieresis" unicode="&#xf6;" 
d="M261 627h-69v125h69v-125zM388 627h-69v125h69v-125zM288 51c28.667 0 55.832 5.5 81.499 16.5s47.834 26 66.501 45s33.5 41.167 44.5 66.5s16.5 52.333 16.5 81s-5.33301 55.667 -16 81s-25.5 47.5 -44.5 66.5s-41.167 34 -66.5 45s-52.333 16.5 -81 16.5
c-29.333 0 -56.666 -5.5 -81.999 -16.5s-47.5 -25.833 -66.5 -44.5s-34 -40.667 -45 -66s-16.5 -52.333 -16.5 -81s5.33301 -55.667 16 -81s25.5 -47.5 44.5 -66.5s41.167 -34.167 66.5 -45.5s52.666 -17 81.999 -17zM287.998 -14c-38 0 -73.667 7.16602 -107 21.499
s-62.5 33.833 -87.5 58.5s-44.667 53.667 -59 87s-21.5 68.666 -21.5 105.999c0 38 7.33301 73.833 22 107.5s34.5 62.834 59.5 87.501s54.333 44.167 88 58.5s69.5 21.5 107.5 21.5c37.333 0 72.5 -7.16699 105.5 -21.5s62 -33.666 87 -57.999s44.667 -53 59 -86
s21.5 -67.833 21.5 -104.5c0 -38 -7.16699 -74 -21.5 -108s-33.833 -63.5 -58.5 -88.5s-53.667 -44.833 -87 -59.5s-69.333 -22 -108 -22z" />
    <glyph glyph-name="divide" unicode="&#xf7;" horiz-adv-x="660" 
d="M361 575v-109h-62v109h62zM299 249h62v-109h-62v109zM78 327v61h504v-61h-504z" />
    <glyph glyph-name="oslash" unicode="&#xf8;" 
d="M393 443c-17.333 9.33301 -34 16.333 -50 21s-34.333 7 -55 7c-28 0 -54.667 -5.5 -80 -16.5s-47.5 -25.833 -66.5 -44.5s-34 -40.5 -45 -65.5s-16.5 -51.5 -16.5 -79.5c0 -31.333 6.16699 -60 18.5 -86s29.833 -49.667 52.5 -71zM192 76
c17.333 -8 33.333 -13.999 48 -17.999s32 -6 52 -6c30 0 57.833 5.5 83.5 16.5s47.667 26 66 45s32.833 41.167 43.5 66.5s16 52.666 16 81.999c0 30 -6.16699 57.5 -18.5 82.5s-28.833 47.5 -49.5 67.5zM95 -53.999l-41.002 30.9961l55 76
c-30.667 26.667 -54.167 57.5 -70.5 92.5s-24.5 72.833 -24.5 113.5c0 38.667 7.33301 74.834 22 108.501s34.5 62.834 59.5 87.501s54.333 44 88 58s69.834 21 108.501 21c50.667 0 97.667 -12.333 141 -37l56 78l41 -31l-56 -77c28 -26 50.5 -56.167 67.5 -90.5
s25.5 -71.166 25.5 -110.499s-7 -76 -21 -110s-33.5 -63.667 -58.5 -89s-54.5 -45.166 -88.5 -59.499s-70.667 -21.5 -110 -21.5c-25.333 0 -49.166 3 -71.499 9s-44.833 15.333 -67.5 28z" />
    <glyph glyph-name="ugrave" unicode="&#xf9;" horiz-adv-x="640" 
d="M428 595l-247 134l28 58l244 -142zM478 88c-17.333 -32 -41.3311 -56.9961 -71.998 -74.9961s-65 -27 -103 -27c-19.333 0 -38 2.83301 -56 8.5s-34.833 13.167 -50.5 22.5s-29.667 20.166 -42 32.499s-22.5 25.166 -30.5 38.499
c-8.66699 14 -15.334 31.167 -20.001 51.5s-7 46.166 -7 77.499v246h-88v62h154v-283c0 -24.667 1.5 -48.5 4.5 -71.5s12.5 -45.167 28.5 -66.5c31.333 -41.333 73.333 -60 126 -56c26 2 48.833 8.16699 68.5 18.5s36.167 23.166 49.5 38.499
c8.66699 10.667 15.667 21.167 21 31.5s9.16602 21 11.499 32s3.83301 22.333 4.5 34s1 24.167 1 37.5v223h-88v62h154v-463h89v-62h-155v88z" />
    <glyph glyph-name="uacute" unicode="&#xfa;" horiz-adv-x="640" 
d="M181 646l246 139l30 -57l-252 -131zM478 88c-17.333 -32 -41.3311 -56.9961 -71.998 -74.9961s-65 -27 -103 -27c-19.333 0 -38 2.83301 -56 8.5s-34.833 13.167 -50.5 22.5s-29.667 20.166 -42 32.499s-22.5 25.166 -30.5 38.499
c-8.66699 14 -15.334 31.167 -20.001 51.5s-7 46.166 -7 77.499v246h-88v62h154v-283c0 -24.667 1.5 -48.5 4.5 -71.5s12.5 -45.167 28.5 -66.5c31.333 -41.333 73.333 -60 126 -56c26 2 48.833 8.16699 68.5 18.5s36.167 23.166 49.5 38.499
c8.66699 10.667 15.667 21.167 21 31.5s9.16602 21 11.499 32s3.83301 22.333 4.5 34s1 24.167 1 37.5v223h-88v62h154v-463h89v-62h-155v88z" />
    <glyph glyph-name="ucircumflex" unicode="&#xfb;" horiz-adv-x="640" 
d="M430 617l-109 82l-107 -82h-83l172 138h39l174 -138h-86zM478 88c-17.333 -32 -41.3311 -56.9961 -71.998 -74.9961s-65 -27 -103 -27c-19.333 0 -38 2.83301 -56 8.5s-34.833 13.167 -50.5 22.5s-29.667 20.166 -42 32.499s-22.5 25.166 -30.5 38.499
c-8.66699 14 -15.334 31.167 -20.001 51.5s-7 46.166 -7 77.499v246h-88v62h154v-283c0 -24.667 1.5 -48.5 4.5 -71.5s12.5 -45.167 28.5 -66.5c31.333 -41.333 73.333 -60 126 -56c26 2 48.833 8.16699 68.5 18.5s36.167 23.166 49.5 38.499
c8.66699 10.667 15.667 21.167 21 31.5s9.16602 21 11.499 32s3.83301 22.333 4.5 34s1 24.167 1 37.5v223h-88v62h154v-463h89v-62h-155v88z" />
    <glyph glyph-name="udieresis" unicode="&#xfc;" horiz-adv-x="640" 
d="M291 627h-69v125h69v-125zM418 627h-69v125h69v-125zM478 88c-17.333 -32 -41.3311 -56.9961 -71.998 -74.9961s-65 -27 -103 -27c-19.333 0 -38 2.83301 -56 8.5s-34.833 13.167 -50.5 22.5s-29.667 20.166 -42 32.499s-22.5 25.166 -30.5 38.499
c-8.66699 14 -15.334 31.167 -20.001 51.5s-7 46.166 -7 77.499v246h-88v62h154v-283c0 -24.667 1.5 -48.5 4.5 -71.5s12.5 -45.167 28.5 -66.5c31.333 -41.333 73.333 -60 126 -56c26 2 48.833 8.16699 68.5 18.5s36.167 23.166 49.5 38.499
c8.66699 10.667 15.667 21.167 21 31.5s9.16602 21 11.499 32s3.83301 22.333 4.5 34s1 24.167 1 37.5v223h-88v62h154v-463h89v-62h-155v88z" />
    <glyph glyph-name="yacute" unicode="&#xfd;" horiz-adv-x="640" 
d="M181 646l246 139l30 -57l-252 -131zM291 -133h86v-62h-243v62h88l54 129l-185 467h-84v62h240v-62h-83l148 -384l157 384h-82v62h238v-62h-84z" />
    <glyph glyph-name="thorn" unicode="&#xfe;" horiz-adv-x="660" 
d="M378 48c28.667 0 55.8369 5.66211 81.5039 16.9951s48 26.5 67 45.5s34.167 41.333 45.5 67s17 53.167 17 82.5c0 32.667 -5.66699 62.334 -17 89.001s-26.5 49.334 -45.5 68.001s-41 32.834 -66 42.501s-51.167 13.834 -78.5 12.501
c-28.667 -1.33301 -55.834 -7 -81.501 -17s-48.334 -24 -68.001 -42s-35.334 -39.833 -47.001 -65.5s-17.5 -54.5 -17.5 -86.5c0 -29.333 5.5 -56.833 16.5 -82.5s26 -48.167 45 -67.5s41.167 -34.666 66.5 -45.999s52.666 -17 81.999 -17zM169.003 407.995h2.00098
c22 41.333 51.5 72.666 88.5 93.999s79.167 32 126.5 32c38 0 73.333 -7.16699 106 -21.5s61.167 -34 85.5 -59s43.333 -54 57 -87s20.5 -68.5 20.5 -106.5s-7 -73.5 -21 -106.5s-33.167 -62 -57.5 -87s-52.833 -44.667 -85.5 -59s-67.667 -21.5 -105 -21.5
c-22 0 -43.833 2.83301 -65.5 8.5s-41.834 13.834 -60.501 24.501s-35.667 23.667 -51 39s-28 33 -38 53h-2v-244h88v-62h-242v62h88v785h-88v62h154v-306z" />
    <glyph glyph-name="ydieresis" unicode="&#xff;" horiz-adv-x="640" 
d="M291 627h-69v125h69v-125zM418 627h-69v125h69v-125zM291 -133h86v-62h-243v62h88l54 129l-185 467h-84v62h240v-62h-83l148 -384l157 384h-82v62h238v-62h-84z" />
    <glyph glyph-name="dotlessi" unicode="&#x131;" horiz-adv-x="260" 
d="M171 62h88v-62h-244v62h90v401h-88v62h154v-463z" />
    <glyph glyph-name="Lslash" unicode="&#x141;" horiz-adv-x="520" 
d="M503 0h-469v66h91v252l-101 -76v71l101 74v261h-91v66h254v-66h-91v-223l127 89v-69l-127 -90v-289h234v118h72v-184z" />
    <glyph glyph-name="lslash" unicode="&#x142;" horiz-adv-x="280" 
d="M22 0v62h88v294l-89 -69v64l89 70v231h-86v62h152v-250l89 69v-65l-89 -69v-337h88v-62h-242z" />
    <glyph glyph-name="OE" unicode="&#x152;" horiz-adv-x="1120" 
d="M95 363c0 -41.333 7.66797 -80.501 23.001 -117.501s36.166 -69.333 62.499 -97s57.666 -49.667 93.999 -66s75.5 -24.5 117.5 -24.5s80.833 8.16699 116.5 24.5s66.834 38.5 93.501 66.5s47.5 60.333 62.5 97s22.5 75.667 22.5 117s-7.5 79.833 -22.5 115.5
s-35.833 67.167 -62.5 94.5c-26 27.333 -56.833 48.833 -92.5 64.5s-74.5 23.5 -116.5 23.5s-81 -7.66699 -117 -23s-67.667 -36.666 -95 -63.999c-26.667 -26.667 -47.667 -58 -63 -94s-23 -75 -23 -117zM1031 647.999l-265.998 -0.000976562v-258h261v-59h-261v-265h266
v118h71v-184h-409v185c-13.333 -30.667 -30.5 -58.334 -51.5 -83.001s-44.5 -45.5 -70.5 -62.5s-54.5 -30.167 -85.5 -39.5s-63.167 -14 -96.5 -14c-31.333 0 -63 4.66699 -95 14s-62.5 22.5 -91.5 39.5s-55.667 37.833 -80 62.5s-44.5 52.334 -60.5 83.001
c-8.66699 16.667 -17.334 40.834 -26.001 72.501s-13 67.5 -13 107.5c0 36.667 4 69.5 12 98.5s17.667 53.833 29 74.5c16 28.667 35.333 54.834 58 78.501s48 44.167 76 61.5s58.167 30.833 90.5 40.5s66.166 14.5 101.499 14.5c67.333 0 128 -16.833 182 -50.5
s94.333 -81.834 121 -144.501v176h410v-182h-72v116z" />
    <glyph glyph-name="oe" unicode="&#x153;" horiz-adv-x="1060" 
d="M289 50c30 0 57.833 5.49707 83.5 16.4971s48.167 26.167 67.5 45.5s34.5 41.833 45.5 67.5s16.5 53.167 16.5 82.5c0 28.667 -5.66699 55.834 -17 81.501s-26.5 47.834 -45.5 66.501s-41.5 33.5 -67.5 44.5s-53.333 16.5 -82 16.5c-30 0 -57.833 -5.66699 -83.5 -17
s-48.167 -26.666 -67.5 -45.999s-34.5 -41.833 -45.5 -67.5s-16.5 -53.167 -16.5 -82.5c0 -28.667 5.66699 -55.667 17 -81s26.666 -47.333 45.999 -66s41.833 -33.5 67.5 -44.5s52.834 -16.5 81.501 -16.5zM983 293.997c-4.66699 24.667 -13.002 47.834 -25.002 69.501
s-27 40.5 -45 56.5s-38.5 28.5 -61.5 37.5s-47.5 13.5 -73.5 13.5s-50.833 -4.5 -74.5 -13.5s-44.667 -21.333 -63 -37s-33.666 -34.334 -45.999 -56.001s-20.166 -45.167 -23.499 -70.5h412zM1032 149.997c-10 -25.333 -23.8301 -47.998 -41.4971 -67.998
s-37.667 -37.167 -60 -51.5s-46.5 -25.333 -72.5 -33s-52.667 -11.5 -80 -11.5c-52.667 0 -100.834 13 -144.501 39s-76.167 63.333 -97.5 112c-10.667 -23.333 -24.5 -44.333 -41.5 -63s-36.333 -34.5 -58 -47.5s-44.834 -23 -69.501 -30s-50 -10.5 -76 -10.5
c-38 0 -73.833 7.16699 -107.5 21.5s-63 34 -88 59s-44.667 54.167 -59 87.5s-21.5 68.666 -21.5 105.999c0 38 7.33301 73.667 22 107s34.5 62.333 59.5 87s54.5 44.167 88.5 58.5s70.333 21.5 109 21.5c26 0 51.333 -3.66699 76 -11s47.667 -17.666 69 -30.999
s40.333 -29.666 57 -48.999s30 -41 40 -65c20.667 49.333 53 87.666 97 114.999s93 41 147 41c36.667 0 71.667 -7.16699 105 -21.5s62.5 -33.833 87.5 -58.5s44.833 -53.334 59.5 -86.001s22 -67.334 22 -104.001v-24h-484c1.33301 -26.667 7.66602 -51.5 18.999 -74.5
s26.333 -43 45 -60s40.167 -30.333 64.5 -40s49.833 -14.5 76.5 -14.5c38 0 72.833 8.5 104.5 25.5s57.5 41.5 77.5 73.5h75z" />
    <glyph glyph-name="Scaron" unicode="&#x160;" horiz-adv-x="500" 
d="M271 806h-39l-171 138h86l109 -82l107 82h83zM374 543c-4.66699 40.667 -20.1699 72.0049 -46.5029 94.0049s-58.166 33 -95.499 33c-18 0 -35.333 -3 -52 -9s-31.167 -14.5 -43.5 -25.5s-22.333 -24.167 -30 -39.5s-11.5 -32.333 -11.5 -51
c0 -19.333 4 -37.833 12 -55.5s19.667 -32.167 35 -43.5c16 -12 35 -20.833 57 -26.5l62 -15.5c26 -6 51 -13 75 -21s46.667 -21 68 -39c22 -18 38.667 -39.667 50 -65s17 -52 17 -80c0 -24.667 -2.83301 -47.334 -8.5 -68.001s-16.5 -41 -32.5 -61
c-44 -56 -103.333 -84 -178 -84c-33.333 0 -64 7 -92 21s-51.333 35 -70 63v-70h-60v192h60c4.66699 -42.667 21.167 -76.834 49.5 -102.501s64.833 -38.5 109.5 -38.5c20 0 39.167 3.5 57.5 10.5s34.333 16.667 48 29s24.5 27.166 32.5 44.499s12 36.333 12 57
c0 26 -4.66699 47.333 -14 64s-21.666 30.5 -36.999 41.5s-33 19.667 -53 26s-40.667 12.166 -62 17.499c-24.667 6.66699 -48.167 13.334 -70.5 20.001s-44.166 17.667 -65.499 33c-24.667 18 -43.167 39.833 -55.5 65.5s-18.5 53.5 -18.5 83.5
c0 25.333 3.66699 47.166 11 65.499s16 34.166 26 47.499c19.333 26 44.5 45.333 75.5 58s63.5 19 97.5 19c28 0 55.5 -6.33301 82.5 -19s46.5 -32 58.5 -58v58h60v-171h-60z" />
    <glyph glyph-name="scaron" unicode="&#x161;" horiz-adv-x="420" 
d="M231 617h-39l-171 138h86l109 -82l107 82h83zM314 392c-0.666992 13.333 -4.00293 25.5 -10.0029 36.5s-14 20.167 -24 27.5c-21.333 16 -46 24 -74 24c-13.333 0 -26.166 -2 -38.499 -6s-23.333 -9.66699 -33 -17s-17.334 -16.666 -23.001 -27.999s-8.5 -24 -8.5 -38
c0 -16.667 3.5 -30.334 10.5 -41.001s16.167 -19.334 27.5 -26.001s23.833 -12 37.5 -16s27.167 -7.33301 40.5 -10c20.667 -4 41.167 -8.66699 61.5 -14s39.5 -13.666 57.5 -24.999c21.333 -12 37.5 -28.167 48.5 -48.5s16.5 -42.5 16.5 -66.5
c0 -17.333 -2.33301 -32.333 -7 -45s-10 -24.667 -16 -36c-12.667 -24 -33.667 -42.833 -63 -56.5s-59.333 -20.5 -90 -20.5c-32 0 -60.333 6 -85 18s-45 31.667 -61 59v-63h-54v150h54c3.33301 -32 17.5 -58.5 42.5 -79.5s55.5 -31.5 91.5 -31.5
c14.667 0 28.834 2.33301 42.501 7s25.834 11.334 36.501 20.001s19.167 19.167 25.5 31.5s9.5 26.166 9.5 41.499c0 18 -3.5 32.667 -10.5 44s-16.167 20.333 -27.5 27s-24.166 11.834 -38.499 15.501s-28.833 7.16699 -43.5 10.5c-20.667 4.66699 -41 9.5 -61 14.5
s-39 13.167 -57 24.5c-19.333 12.667 -34.5 28.5 -45.5 47.5s-16.5 40.167 -16.5 63.5c0 18 2 34.167 6 48.5s11 28.166 21 41.499c8 10 17.333 18.667 28 26s22.167 13.333 34.5 18s25.166 8.16699 38.499 10.5s26 3.5 38 3.5c24.667 0 47.334 -4.5 68.001 -13.5
s37.667 -23.833 51 -44.5v49h54v-133h-54z" />
    <glyph glyph-name="Ydieresis" unicode="&#x178;" horiz-adv-x="680" 
d="M311 816h-69v125h69v-125zM438 816h-69v125h69v-125zM381 66h91v-66h-255v66h92v174l-217 408h-85v66h249v-66h-88l177 -340l168 340h-92v66h250v-66h-85l-205 -408v-174z" />
    <glyph glyph-name="florin" unicode="&#x192;" 
d="M273 34c-5.33301 -28 -12.6621 -52.502 -21.9951 -73.502s-26.333 -40.5 -51 -58.5c-20.667 -15.333 -42.334 -26.166 -65.001 -32.499s-46.667 -10.166 -72 -11.499l10 55c14 1.33301 27.667 3.66602 41 6.99902s25.666 8.66602 36.999 15.999
c20 12.667 33.167 27.334 39.5 44.001s11.833 35 16.5 55l68 362h-87l9 50h88c3.33301 14.667 6.5 31.167 9.5 49.5s6.5 36.833 10.5 55.5s8.66699 36.667 14 54s12.333 32 21 44c20 28 45.667 48.333 77 61s64.666 20 99.999 22l-11 -56
c-22 -1.33301 -42.833 -6.33301 -62.5 -15s-35.834 -21.667 -48.501 -39c-6 -9.33301 -11.167 -21.666 -15.5 -36.999s-8 -31.5 -11 -48.5l-8.5 -50c-2.66699 -16.333 -5.33398 -29.833 -8.00098 -40.5h89l-9 -50h-90z" />
    <glyph glyph-name="circumflex" unicode="&#x2c6;" horiz-adv-x="520" 
d="M370 617l-109 82l-107 -82h-83l172 138h39l174 -138h-86z" />
    <glyph glyph-name="caron" unicode="&#x2c7;" horiz-adv-x="520" 
d="M281 617h-39l-171 138h86l109 -82l107 82h83z" />
    <glyph glyph-name="breve" unicode="&#x2d8;" horiz-adv-x="480" 
d="M123 753c0.666992 -14 4.83301 -25.833 12.5 -35.5s16.834 -17.834 27.501 -24.501s22.5 -11.5 35.5 -14.5s25.5 -4.5 37.5 -4.5s24.333 1.5 37 4.5s24.5 7.83301 35.5 14.5s20.167 14.834 27.5 24.501s11.666 21.5 12.999 35.5h48
c-0.666992 -22 -5.66699 -41.167 -15 -57.5s-21.5 -30 -36.5 -41s-32 -19.333 -51 -25s-38.5 -8.5 -58.5 -8.5s-39.667 2.83301 -59 8.5s-36.5 14 -51.5 25s-27.167 24.667 -36.5 41s-14 35.5 -14 57.5h48z" />
    <glyph glyph-name="dotaccent" unicode="&#x2d9;" horiz-adv-x="200" 
d="M138 627h-67v125h67v-125z" />
    <glyph glyph-name="ring" unicode="&#x2da;" horiz-adv-x="360" 
d="M179 625c17.333 0 31.834 6.16699 43.501 18.5s17.5 27.166 17.5 44.499s-6.16699 31.833 -18.5 43.5s-26.833 17.5 -43.5 17.5c-18 0 -32.833 -6.16699 -44.5 -18.5s-17.5 -27.166 -17.5 -44.499s6.16699 -31.833 18.5 -43.5s27.166 -17.5 44.499 -17.5zM179.001 581
c-15.333 0 -29.501 2.83496 -42.501 8.50195s-24.167 13.167 -33.5 22.5s-16.833 20.5 -22.5 33.5s-8.5 27.167 -8.5 42.5c0 14.667 2.83301 28.334 8.5 41.001s13.334 23.834 23.001 33.501s21 17.167 34 22.5s26.833 8 41.5 8s28.334 -2.83301 41.001 -8.5
s23.667 -13.334 33 -23.001s16.833 -21 22.5 -34s8.5 -26.5 8.5 -40.5c0 -14.667 -2.83301 -28.334 -8.5 -41.001s-13.167 -23.834 -22.5 -33.501s-20.333 -17.334 -33 -23.001s-26.334 -8.5 -41.001 -8.5z" />
    <glyph glyph-name="ogonek" unicode="&#x2db;" horiz-adv-x="320" 
d="M241 -178c-18.667 -7.33301 -37 -11.001 -55 -11.001c-30 0 -54.333 9.33301 -73 28s-28 43 -28 73c0 18 3.5 34 10.5 48s16.833 27.333 29.5 40h47c-11.333 -8.66699 -20.166 -17.667 -26.499 -27s-9.5 -21.666 -9.5 -36.999c0 -19.333 5.83301 -36.833 17.5 -52.5
s27.5 -23.5 47.5 -23.5c7.33301 0 14.166 1 20.499 3s12.833 4.33301 19.5 7v-48z" />
    <glyph glyph-name="tilde" unicode="&#x2dc;" horiz-adv-x="460" 
d="M391 691c-13.333 -14 -28.333 -25.1641 -45 -33.4971s-34.667 -12.5 -54 -12.5c-13.333 0 -25.333 1.83301 -36 5.5s-20.667 7.66699 -30 12s-18.5 8.33301 -27.5 12s-18.167 5.5 -27.5 5.5c-12 0 -23 -2.83301 -33 -8.5s-19 -12.834 -27 -21.501l-39 49
c10 11.333 23 20.666 39 27.999s31.667 11 47 11c12 0 23 -1.83301 33 -5.5s19.667 -7.5 29 -11.5c10 -4.66699 20 -8.83398 30 -12.501s21 -5.5 33 -5.5c30 0 53.667 11 71 33z" />
    <glyph glyph-name="hungarumlaut" unicode="&#x2dd;" horiz-adv-x="460" 
d="M199 617l135 187l48 -24l-143 -185zM71 622l135 188l48 -24l-143 -186z" />
    <glyph glyph-name="endash" unicode="&#x2013;" horiz-adv-x="500" 
d="M-6 228v66h512v-66h-512z" />
    <glyph glyph-name="emdash" unicode="&#x2014;" horiz-adv-x="1000" 
d="M-6 228v66h1012v-66h-1012z" />
    <glyph glyph-name="quoteleft" unicode="&#x2018;" horiz-adv-x="200" 
d="M173 531h-63l-74 183h63z" />
    <glyph glyph-name="quoteright" unicode="&#x2019;" horiz-adv-x="200" 
d="M36 531l74 183h63l-74 -183h-63z" />
    <glyph glyph-name="quotesinglbase" unicode="&#x201a;" horiz-adv-x="200" 
d="M36 -97l74 184h63l-74 -184h-63z" />
    <glyph glyph-name="quotedblleft" unicode="&#x201c;" horiz-adv-x="340" 
d="M302 531h-63l-75 183h64zM173 531h-63l-74 183h63z" />
    <glyph glyph-name="quotedblright" unicode="&#x201d;" horiz-adv-x="340" 
d="M36 531l74 183h63l-74 -183h-63zM165 531l75 183h63l-75 -183h-63z" />
    <glyph glyph-name="quotedblbase" unicode="&#x201e;" horiz-adv-x="340" 
d="M36 -97l74 184h63l-74 -184h-63zM164 -97l75 184h63l-74 -184h-64z" />
    <glyph glyph-name="dagger" unicode="&#x2020;" horiz-adv-x="560" 
d="M319 -132h-69v570h-214v55h214v221h69v-221h213v-55h-213v-570z" />
    <glyph glyph-name="daggerdbl" unicode="&#x2021;" horiz-adv-x="560" 
d="M315 321h212v-54h-212v-399h-70v399h-209v54h209v123h-209v54h209v216h70v-216h212v-54h-212v-123z" />
    <glyph glyph-name="bullet" unicode="&#x2022;" horiz-adv-x="600" 
d="M459 179h-318v357h318v-357z" />
    <glyph glyph-name="ellipsis" unicode="&#x2026;" horiz-adv-x="1000" 
d="M867 0h-69v109h69v-109zM534 0h-69v109h69v-109zM201 0h-69v109h69v-109z" />
    <glyph glyph-name="perthousand" unicode="&#x2030;" horiz-adv-x="1200" 
d="M217 0l317 714h57l-316 -714h-58zM995 46c14.667 0 28.6699 2.8291 42.0029 8.49609s24.666 13.5 33.999 23.5s16.833 21.5 22.5 34.5s8.5 26.833 8.5 41.5s-2.83301 28.334 -8.5 41.001s-13.334 23.834 -23.001 33.501s-20.834 17.334 -33.501 23.001
s-26.334 8.5 -41.001 8.5s-28.5 -2.66699 -41.5 -8s-24.5 -12.666 -34.5 -21.999s-18 -20.333 -24 -33s-9 -26.334 -9 -41.001c0 -15.333 2.83301 -29.666 8.5 -42.999s13.334 -25 23.001 -35s21 -17.833 34 -23.5s27.167 -8.5 42.5 -8.5zM994.003 -13.0039
c-23.333 0 -45 4.5 -65 13.5s-37.5 21.167 -52.5 36.5s-26.667 33.166 -35 53.499s-12.5 42.166 -12.5 65.499c0 22.667 4.5 43.834 13.5 63.501s21 36.834 36 51.501s32.667 26.167 53 34.5s41.5 12.5 63.5 12.5c22.667 0 44 -4.33301 64 -13s37.5 -20.5 52.5 -35.5
s26.833 -32.5 35.5 -52.5s13 -41.333 13 -64s-4.33301 -44.167 -13 -64.5s-20.5 -38 -35.5 -53s-32.667 -26.833 -53 -35.5s-41.833 -13 -64.5 -13zM202.003 455.996c14.667 0 28.6719 2.8291 42.0049 8.49609s24.666 13.5 33.999 23.5s16.833 21.5 22.5 34.5
s8.5 27.167 8.5 42.5c0 14.667 -2.83301 28.334 -8.5 41.001s-13.334 23.834 -23.001 33.501s-20.834 17.334 -33.501 23.001s-26.334 8.5 -41.001 8.5s-28.5 -2.66699 -41.5 -8s-24.5 -12.666 -34.5 -21.999s-18 -20.333 -24 -33s-9 -26.334 -9 -41.001
c0 -15.333 2.66699 -29.666 8 -42.999s12.833 -25 22.5 -35s21.167 -18 34.5 -24s27.666 -9 42.999 -9zM201.008 397.992c-23.333 0 -45.167 4.5 -65.5 13.5s-37.833 21.167 -52.5 36.5s-26.167 33.166 -34.5 53.499s-12.5 42.166 -12.5 65.499
c0 22.667 4.5 43.834 13.5 63.501s21 36.834 36 51.501s32.667 26.167 53 34.5s41.5 12.5 63.5 12.5c22.667 0 43.834 -4.33301 63.501 -13s37 -20.5 52 -35.5s26.833 -32.5 35.5 -52.5s13 -41.333 13 -64c0 -23.333 -4.33301 -45 -13 -65s-20.334 -37.5 -35.001 -52.5
s-32.167 -26.833 -52.5 -35.5s-41.833 -13 -64.5 -13zM605.007 45.9922c14.667 0 28.6709 2.8291 42.0039 8.49609s24.666 13.5 33.999 23.5s16.833 21.5 22.5 34.5s8.5 26.833 8.5 41.5s-2.83301 28.334 -8.5 41.001s-13.334 23.834 -23.001 33.501
s-20.834 17.334 -33.501 23.001s-26.334 8.5 -41.001 8.5s-28.5 -2.66699 -41.5 -8s-24.5 -12.666 -34.5 -21.999s-17.833 -20.333 -23.5 -33s-8.5 -26.334 -8.5 -41.001c0 -15.333 2.66699 -29.666 8 -42.999s12.833 -25 22.5 -35s21 -17.833 34 -23.5
s27.167 -8.5 42.5 -8.5zM605.011 -13.0117c-23.333 0 -45.166 4.5 -65.499 13.5s-37.833 21.167 -52.5 36.5s-26.167 33.166 -34.5 53.499s-12.5 42.166 -12.5 65.499c0 22.667 4.5 43.834 13.5 63.501s21 36.834 36 51.501s32.5 26.167 52.5 34.5s41 12.5 63 12.5
c22.667 0 44 -4.33301 64 -13s37.5 -20.5 52.5 -35.5s26.833 -32.5 35.5 -52.5s13 -41.333 13 -64s-4.33301 -44.167 -13 -64.5s-20.334 -38 -35.001 -53s-32.167 -26.833 -52.5 -35.5s-41.833 -13 -64.5 -13z" />
    <glyph glyph-name="guilsinglleft" unicode="&#x2039;" horiz-adv-x="200" 
d="M36 241v40l115 171l15 -56l-85 -137l85 -136l-15 -54z" />
    <glyph glyph-name="guilsinglright" unicode="&#x203a;" horiz-adv-x="200" 
d="M36 123l85 136l-85 137l14 56l116 -171v-40l-116 -172z" />
    <glyph glyph-name="trademark" unicode="&#x2122;" horiz-adv-x="980" 
d="M330 657h-129v-350h-71v350h-130v57h330v-57zM846 307h-63v350l-141 -350h-38l-138 350v-350h-64v407h104l116 -287l122 287h102v-407z" />
    <glyph glyph-name="minus" unicode="&#x2212;" horiz-adv-x="660" 
d="M78 327v61h503v-61h-503z" />
    <glyph glyph-name="fraction" unicode="&#x2215;" horiz-adv-x="60" 
d="M-154 0l317 714h57l-316 -714h-58z" />
    <glyph glyph-name="fi" unicode="&#xfb01;" horiz-adv-x="500" 
d="M331 465h-162v-403h162v403zM397 611h-66v103h66v-103zM485 62l-0.000976562 -61.999h-470v62h88v403h-88v64h88v9l2 42.5c0.666992 13.667 2.66699 26.667 6 39s8.33301 24.166 15 35.499s16 22.333 28 33c17.333 16 36.833 27.167 58.5 33.5s44.167 10.166 67.5 11.499
v-59c-13.333 -1.33301 -26.166 -3.83301 -38.499 -7.5s-23.833 -9.5 -34.5 -17.5c-18 -13.333 -28.5 -29.166 -31.5 -47.499s-4.83301 -37.833 -5.5 -58.5v-14h227v-467h88z" />
    <glyph glyph-name="fl" unicode="&#xfb02;" horiz-adv-x="500" 
d="M169 62l161.001 -0.00292969v612h-25c-18.667 0 -35.834 -1.33301 -51.501 -4s-31.167 -9.66699 -46.5 -21c-9.33301 -7.33301 -16.5 -15.166 -21.5 -23.499s-8.66699 -17.166 -11 -26.499s-3.83301 -19.166 -4.5 -29.499s-1 -20.833 -1 -31.5v-9h90v-64h-90v-403z
M396.001 61.9971l88.002 -0.00195312v-62h-469v62h88v403h-88v64h88v9c0.666992 15.333 1.5 30 2.5 44s3.16699 27.333 6.5 40s8.66602 24.834 15.999 36.501s17.666 22.834 30.999 33.501c18 15.333 38.833 26 62.5 32s47.167 9 70.5 9h104v-671z" />
    <glyph glyph-name="nonbreakingspace" horiz-adv-x="300" 
 />
    </font>
</defs>
</svg>
